Скачать через торрент Робоцып Robot Chicken Фильм бесплатно в хорошем качестве torrent

Скачивайте на UnionPeer.org фильмы через торрент без регистрации. Новинки кино в хорошем качестве через торрент. На UnionPeer.org можно скачать через торрент фильмы 2014 и 2015 годов. Самые новые фильмы.

Скачать торрент Робоцып Robot Chicken бесплатно через .torrent фильм мультфильм сериал

Статистика раздачи
Размер:  6.47 GB   |    Зарегистрирован:  2 года 11 месяцев   |    .torrent скачан:  45 раз   |   
Раздают:  1  
   
загрузка...
 
Автор Сообщение

Galfimbul

avatar Galfimbul


<span class="post-font-serif1">Робоцып / Robot Chicken</span>
<span class="post-font-serif1">Страна: США
Студия: Sony Pictures, Williams Street
Жанр: Сатира, Пародия, Чёрный Юмор
Продолжительность: ~ 11 мин
Год выпуска: 2014
Перевод: Студийный (одноголосый закадровый) Сергей Набиев |2x2|
Русские субтитры: citzes

Режиссёр: Сет Грин, Мэтью Синрайк / Seth Green, Matthew Senreich
Роли озвучивали: Seth Green, Matthew Senreich, Jordan Allen-Dutton, Candace Bailey, Abraham Benrubi, Alex Borstein...
Описание: "Робоцып" - калейдоскоп коротких скетчей, полных чёрного юмора и сатиры. Практически каждая сценка пародирует кино, телешоу, компьютерные игры, героев мультфильмов и комиксов, актёров, политиков, певцов и других знаменитостей, а также продукты питания, рекламные ролики или прочие проявления массовой культуры. Все серии объединены общим сюжетом, по которому некий Робоцып оживил безумного учёного, привязал его к креслу и заставил смотреть несколько телевизоров сразу. Причём, смены скетчей выполнены в виде переключения каналов.
Релиз группы:
01 G.I. Jogurt
02 Link's Sausages
03 Secret of the Booze
04 Rebel Appliance
05 Legion of Super-Gyros
06 El Skeletorito
07 Snarfer Image
08 Up, Up, and Buffet
09 Panthropologie
10 Catdog on a Stick
11 Super Guitario Center
12 Noidstrom Rack
13 Stone Cold Steve Cold Stone
14 Walking Dead Lobster
15 Victoria's Secret of NIMH
16 Bitch Pudding Special
17 Batman Forever 21
18 The Hobbit: There and Bennigan's
19 Chipotle Miserables
20 The Robot Chicken Lots of Holidays Special
Доп. информация:
Огромное Спасибо <a href="profile.php?mode=viewprofile&u=4566614" class="postLink">#Antisnl#</a> за предоставление записей телеканала [2x2]
Для Робоцыпа 29.970fps это норма. Все стоп-моушен сцены сняты в 15fps, а все эффекты (огонь, кровь) - в 30fps.
Качество: WEB-DL 720p
Формат: MKV
Видео: MPEG-4 AVC, 960x720 (16:9), 29.970 fps, ~ 3000 kbps
Аудио 1: Русский, AC3 Dolby Digital, 2 ch, 192 kbps, 48 kHz |2x2|
Аудио 2: Английский, AC3 Dolby Digital, 6 ch, 384 kbps, 48 kHz
Субтитры: Русские (15, 17, 18 серии), Английские | SubRip

Сэмпл
<a href="viewtopic.php?t=4664765" class="postLink">Season 6 BDRip 1080p</a> | <a href="viewtopic.php?t=4664732" class="postLink">720p</a>
<a href="viewtopic.php?t=4784735" class="postLink">Season 5 BDRip 1080p</a> | <a href="viewtopic.php?t=4658688" class="postLink">720p</a>
<a href="tracker.php?f=921&nm=Robot+Chicken" class="postLink">Все раздачи мультсериала</a>
</span>
<span class="post-font-serif1">
Общее
Уникальный идентификатор : 250191713001548789349450085155309142141 (0xBC392BD327B86D038A72BC3E8B54C07D)
Полное имя : C:\Раздачи\Robot.Chicken.S07.2014.H264.WEB-DL.720p-SergeZuich\04 Rebel Appliance.mkv
Формат : Matroska
Версия формата : Version 4 / Version 2
Размер файла : 274 Мбайт
Продолжительность : 10 м.
Общий поток : 3539 Кбит/сек
Название фильма : Robot Chicken - Rebel Appliance (S07E04)
Дата кодирования : UTC 2016-08-26 22:44:13
Программа кодирования : mkvmerge v8.3.0 ('Over the Horizon') 64bit
Библиотека кодирования : libebml v1.3.1 + libmatroska v1.4.2

Видео
Идентификатор : 1
Формат : AVC
Формат/Информация : Advanced Video Codec
Профиль формата : Main@L3.1
Параметр CABAC формата : Нет
Параметр ReFrames формата : 2 кадра
Идентификатор кодека : V_MPEG4/ISO/AVC
Продолжительность : 10 м.
Битрейт : 2893 Кбит/сек
Ширина : 960 пикселей
Высота : 720 пикселей
Соотношение сторон : 16:9
Частота кадров : 29,970 кадров/сек
Цветовое пространство : YUV
Субдискретизация насыщенности : 4:2:0
Битовая глубина : 8 бит
Тип развёртки : Прогрессивная
Бит/(Пиксели*Кадры) : 0.140
Размер потока : 224 Мбайт (82%)
Заголовок : Rebel Appliance
Основные цвета : BT.709-5, BT.1361, IEC 61966-2-4, SMPTE RP177
Характеристики трансфера : BT.709-5, BT.1361
Коэффициенты матрицы : BT.709-5, BT.1361, IEC 61966-2-4 709, SMPTE RP177

Аудио #1
Идентификатор : 2
Формат : AC-3
Формат/Информация : Audio Coding 3
Расширение режима : CM (complete main)
Идентификатор кодека : A_AC3
Продолжительность : 10 м.
Вид битрейта : Постоянный
Битрейт : 192 Кбит/сек
Каналы : 2 канала
Расположение каналов : Front: L R
Частота : 48,0 КГц
Битовая глубина : 16 бит
Метод сжатия : С потерями
Размер потока : 14,9 Мбайт (5%)
Заголовок : VO [2x2] - AC3 Dolby Digital, 2ch, 192 kbps, 48 kHz
Язык : Russian

Аудио #2
Идентификатор : 3
Формат : AC-3
Формат/Информация : Audio Coding 3
Расширение режима : CM (complete main)
Идентификатор кодека : A_AC3
Продолжительность : 10 м.
Вид битрейта : Постоянный
Битрейт : 384 Кбит/сек
Каналы : 6 каналов
Расположение каналов : Front: L C R, Side: L R, LFE
Частота : 48,0 КГц
Битовая глубина : 16 бит
Метод сжатия : С потерями
Размер потока : 29,8 Мбайт (11%)
Заголовок : Original - AC3 Dolby Digital, 6ch, 384 kbps, 48 kHz
Язык : English

Текст
Идентификатор : 4
Формат : UTF-8
Идентификатор кодека : S_TEXT/UTF8
Идентификатор кодека/Информация : UTF-8 Plain Text
Заголовок : Rebel Appliance</span>


Трекер:  [ 17-Сен-2016 01:00 ]

  

Скачать .torrent

Размер .torrent файла 18 KB


Размер: 6.47 GB
Хэш (hash) релиза: e27eb8bd1dbd330ab1c43fdb46dff594aa9dde83
Подписка на обновления:

Торренты, похожие на Робоцып Robot Chicken скачать торрент

Форум Название Автор Размер S L Добавлен
Мультсериалы ·· Робоцып / Robot Chicken / Сезон: 7 / Серии: 1-19 (20) (Сет Грин, Мэтью Синрайк / Seth Green, Matthew Senreich) [2014, Сатира, Пародия, Чёрный Юмор, WEB-DL 1080p] VO [2x2] + Subs (Rus, Eng) Galfimbul 81797670017.62 GB 0 0 1474065206

01:33

17-Сен-16

Еще никто не оставлял запись к записи скачать торрент Робоцып Robot Chicken . Будь первым!

!Обратная связь