Скачать через торрент Такой же предатель, как и мы Our Kind of Traitor Фильм бесплатно в хорошем качестве torrent

Скачивайте на UnionPeer.org фильмы через торрент без регистрации. Новинки кино в хорошем качестве через торрент. На UnionPeer.org можно скачать через торрент фильмы 2014 и 2015 годов. Самые новые фильмы.

Скачать торрент Такой же предатель, как и мы Our Kind of Traitor бесплатно через .torrent фильм мультфильм сериал

Статистика раздачи
Размер:  1.45 GB   |    Зарегистрирован:  7 лет 5 месяцев   |    .torrent скачан:  418 раз   |   
Раздают:  1  
 

Скачать Такой же предатель, как и мы / Our Kind of Traitor (Сюзанна Уайт / Susanna White) [2016, Великобритания, Франция, Триллер, HDRip] MVO (iTunes) через torrent

 
 
Автор Сообщение

Galfimbul

avatar Galfimbul


Такой же предатель, как и мы / Our Kind of Traitor

Страна: Великобритания, Франция
Жанр: Триллер
Год выпуска: 2016
Продолжительность: 01:47:36

Перевод: Профессиональный (многоголосый закадровый) iTunes]
Cубтитры: нет
Режиссер: Сюзанна Уайт / Susanna White
Релиз группы: scarabey
В ролях: Карлос Акоста, Радивойе Буквич, Стеллан Скарсгард, Мария Фомина, Доля Гавански, Григорий Добрыгин, Велибор Топич, Павел Жайда, Юэн МакГрегор,
Наоми Харрис

Описание: Молодая английская пара, отдыхая в Марокко, заводит знакомство с русским олигархом, отмывающим деньги для преступных группировок, чьи лидеры вот-вот спишут его со счетов. Чтобы спасти себя и семью, он предлагает разведке Великобритании море ценных сведений в обмен на защиту и покровительство. Его последняя отчаянная надежда — на «английских джентльменов», которые всегда «играют честно»...

Сэмпл: http://multi-up.com/1118516

Качество видео: HDRip
Формат видео: AVI

Видео: 720x304 (2.37:1), 24 fps, XviD build 73 ~1531 kbps avg, 0.29 bit/pixel
Аудио: 48 kHz, AC3 Dolby Digital, 6 ch, ~384.00 kbps avg
General
Complete name : E:\Zona Downloads\Our.Kind.of.Traitor.2016_HDRip.avi
Format : AVI
Format/Info : Audio Video Interleave
File size : 1.45 GiB
Duration : 1h 47mn
Overall bit rate : 1 925 Kbps
Writing application : VirtualDubMod 1.5.10.3 | www.virtualdub-fr.org || (build 2550/release)
Writing library : VirtualDub build 32842/release

Video
ID : 0
Format : MPEG-4 Visual
Format profile : Advanced Simple@L5
Format settings, BVOP : 1
Format settings, QPel : No
Format settings, GMC : No warppoints
Format settings, Matrix : Custom
Codec ID : XVID
Codec ID/Hint : XviD
Duration : 1h 47mn
Bit rate : 1 532 Kbps
Width : 720 pixels
Height : 304 pixels
Display aspect ratio : 2.35:1
Frame rate : 24.000 fps
Color space : YUV
Chroma subsampling : 4:2:0
Bit depth : 8 bits
Scan type : Progressive
Compression mode : Lossy
Bits/(Pixel*Frame) : 0.292
Stream size : 1.15 GiB (80%)
Writing library : XviD 73

Audio
ID : 1
Format : AC-3
Format/Info : Audio Coding 3
Mode extension : CM (complete main)
Format settings, Endianness : Big
Codec ID : 2000
Duration : 1h 47mn
Bit rate mode : Constant
Bit rate : 384 Kbps
Channel(s) : 6 channels
Channel positions : Front: L C R, Side: L R, LFE
Sampling rate : 48.0 KHz
Bit depth : 16 bits
Compression mode : Lossy
Delay relative to video : 1s 500ms
Stream size : 295 MiB (20%)
Alignment : Split accross interleaves
Interleave, duration : 42 ms (1.00 video frame)
Interleave, preload duration : 500 ms


Внимание! AdBlock блокирует показ скриншотов, все вопросы к разработчикам )))
Трекер:  [ 18-Сен-2016 19:30 ]

  

Скачать .torrent

Размер .torrent файла 15 KB


Размер: 1.45 GB
Хэш (hash) релиза: 222b9c2464e903a1a42c1b6482f252309e74ee82
Подписка на обновления:

Еще никто не оставлял запись к записи скачать торрент Такой же предатель, как и мы Our Kind of Traitor . Будь первым!

!Обратная связь