Скачать через торрент Славные парни The Nice Guys Фильм бесплатно в хорошем качестве torrent

Скачивайте на UnionPeer.org фильмы через торрент без регистрации. Новинки кино в хорошем качестве через торрент. На UnionPeer.org можно скачать через торрент фильмы 2014 и 2015 годов. Самые новые фильмы.

Скачать торрент Славные парни The Nice Guys бесплатно через .torrent фильм мультфильм сериал

Статистика раздачи
Размер:  15.3 GB   |    Зарегистрирован:  7 лет 5 месяцев   |    .torrent скачан:  62 раза   |   
Раздают:  1  
   
 
Автор Сообщение

Galfimbul

avatar Galfimbul


<span class="post-font-serif1">Славные парни / The Nice Guys</span>
Страна: США, Великобритания
Студия: Bloom, Lip Sync Productions, Misty Mountains
Жанр: Криминал, комедия
Год выпуска: 2016
Продолжительность: 01:55:57

Перевод 1: Профессиональный (дублированный) iTunes
Перевод 2: Профессиональный (двухголосый закадровый) Кубик в Кубе
Перевод 3: Одноголосый закадровый М. Чадов по переводу Д. Пучкова
Cубтитры: Русские, Английские
Оригинальная аудиодорожка: Английский

Режиссер: Шейн Блэк / Shane Black

В ролях: Райан Гослинг, Ким Бейсингер, Расселл Кроу, Энгаури Райс, Мэтт Бомер, Маргарет Куэлли, Йайа ДаКоста, Кит Дэвид, Бо Напп, Лоис Смит.

Описание: Что может объединять два совершенно разных человека - частного сыщика Марчи Холланда, и наёмного вышибалу Хили Джексона? Лос-Анджелес 1970 год, два кажется несвязанных между собой дела, которые взялись расследовать эти два разных по профессиям человека, пропажа девушки, и смерть порнозвезды. В ходе расследования, нити этих дел приведут к шокирующему результату, о заговоре в высших эшелонов власти.
Рейтинг

Сэмпл

Тип релиза: BDRip 1080p
Контейнер: MKV

Видео: 1920x800 (2,40:1), 23.976 fps, x264, ~13600 kbps | Encode by DON
Аудио 1: Russian: 48 kHz, AC3, 3/2 (L,C,R,l,r) + LFE ch, ~384 kbps | Дубляж, iTunes
Аудио 2: Russian: 48 kHz, DTS, 3/2 (L,C,R,l,r) + LFE ch, ~1509 kbps | Двухголосый закадровый, Кубик в Кубе
Аудио 3: Russian: 48 kHz, DTS, 3/2 (L,C,R,l,r) + LFE ch, ~1509 kbps | Одноголосый закадровый, М. Чадов по переводу Д. Пучкова
Аудио 4: English: 48 kHz, DTS, 3/2 (L,C,R,l,r) + LFE ch, ~1509 kbps
Субтитры: Русские (Full), Английские (Full, SDH)
Формат субтитров: softsub (SRT)
За работу над дорожкой Кубик в Кубе спасибо messafan.
Внимание! В переводе присутствует ненормативная лексика.
Общее
Unique ID : 209848102320229444227077264179223898192 (0x9DDF463F48B1D1DBB18CB910A4ACA850)
Complete name : E:\video_rutracker\The.Nice.Guys.2016.1080p.BluRay.3xRus.Eng.x264.mkv
Format : Matroska
Format version : Version 2
File size : 15,3 Гбайт
Duration : 1 ч. 55 м.
Overall bit rate : 18,9 Мбит/сек
Encoded date : UTC 2016-09-24 09:24:25
Writing application : mkvmerge v8.3.0 ('Over the Horizon') 64bit
Writing library : libebml v1.3.1 + libmatroska v1.4.2
Cover : Yes
Attachments : cover.jpg

Видео
ID : 1
Format : AVC
Format/Info : Advanced Video Codec
Format profile : [email protected]
Format settings, CABAC : Да
Format settings, ReFrames : 5 кадров
Codec ID : V_MPEG4/ISO/AVC
Duration : 1 ч. 55 м.
Bit rate : 13,6 Мбит/сек
Width : 1920 пикселей
Height : 800 пикселей
Display aspect ratio : 2,40:1
Frame rate mode : Постоянный
Frame rate : 23,976 (24000/1001) кадра/сек
Color space : YUV
Chroma subsampling : 4:2:0
Bit depth : 8 бит
Scan type : Прогрессивная
Bits/(Pixel*Frame) : 0.369
Stream size : 11,0 Гбайт (72%)
Title : Encode by DON
Writing library : x264 core 142 r2431+42 c69a006 DON [8-bit@all X86_64]
Encoding settings : cabac=1 / ref=5 / deblock=1:-3:-3 / analyse=0x3:0x133 / me=umh / subme=11 / psy=1 / fade_compensate=0.00 / psy_rd=1.05:0.00 / mixed_ref=1 / me_range=32 / chroma_me=1 / trellis=2 / 8x8dct=1 / cqm=0 / deadzone=21,11 / fast_pskip=0 / chroma_qp_offset=-2 / threads=12 / lookahead_threads=2 / sliced_threads=0 / nr=0 / decimate=0 / interlaced=0 / bluray_compat=0 / constrained_intra=0 / fgo=0 / bframes=9 / b_pyramid=2 / b_adapt=2 / b_bias=0 / direct=3 / weightb=1 / open_gop=0 / weightp=2 / keyint=250 / keyint_min=23 / scenecut=40 / intra_refresh=0 / rc_lookahead=60 / rc=crf / mbtree=0 / crf=16.5000 / qcomp=0.65 / qpmin=0:0:0 / qpmax=69:69:69 / qpstep=4 / vbv_maxrate=62500 / vbv_bufsize=78125 / crf_max=0.0 / nal_hrd=none / filler=0 / ip_ratio=1.30 / pb_ratio=1.20 / aq=3:0.75 / aq-sensitivity=10.00 / aq-factor=1.00:1.00:1.00 / aq2=0 / aq3=0 / zones=510,525,crf=13/560,715,crf=13/47244,47634,crf=13/50330,50568,crf=14/52637,52723,crf=14/53862,53928,crf=14/56090,56423,crf=12/56485,56570,crf=13/56945,57019,crf=13/57034,57235,crf=13/57309,57368,crf=14/97448,97479,crf=13/115623,115706,crf=13/116063,116400,crf=13/121179,121328,crf=14/122361,122377,crf=13/122505,122523,crf=13/123272,123316,crf=13/123381,123404,crf=12/123739,123761,crf=14/123762,123779,crf=12/123882,123924,crf=14/124179,124196,crf=13/124594,124607,crf=13/144706,144770,crf=13/145377,145522,crf=13/145593,145615,crf=14/145903,146132,crf=14/146360,146484,crf=13/146781,146982,crf=14/147437,147458,crf=13/147534,147555,crf=14/147587,147674,crf=15/148873,148903,crf=14/151287,151317,crf=12/151996,152076,crf=13/159440,166350,crf=20
Language : English
Default : Да
Forced : Нет
Color range : Limited
Matrix coefficients : BT.709

Аудио #1
ID : 2
Format : AC-3
Format/Info : Audio Coding 3
Mode extension : CM (complete main)
Format settings, Endianness : Big
Codec ID : A_AC3
Duration : 1 ч. 55 м.
Bit rate mode : Постоянный
Bit rate : 384 Кбит/сек
Channel(s) : 6 каналов
Channel positions : Front: L C R, Side: L R, LFE
Sampling rate : 48,0 КГц
Frame rate : 31,250 кадров/сек (1536 spf)
Compression mode : С потерями
Stream size : 318 Мбайт (2%)
Title : Дубляж, iTunes
Language : Russian
Default : Да
Forced : Нет

Аудио #2
ID : 3
Format : DTS
Format/Info : Digital Theater Systems
Mode : 16
Format settings, Endianness : Big
Codec ID : A_DTS
Duration : 1 ч. 55 м.
Bit rate mode : Постоянный
Bit rate : 1509 Кбит/сек
Channel(s) : 6 каналов
Channel positions : Front: L C R, Side: L R, LFE
Sampling rate : 48,0 КГц
Frame rate : 93,750 кадра/сек (512 spf)
Bit depth : 24 бит
Compression mode : С потерями
Stream size : 1,22 Гбайт (8%)
Title : Двухголосый закадровый, Кубик в Кубе
Language : Russian
Default : Нет
Forced : Нет

Аудио #3
ID : 4
Format : DTS
Format/Info : Digital Theater Systems
Mode : 16
Format settings, Endianness : Big
Codec ID : A_DTS
Duration : 1 ч. 55 м.
Bit rate mode : Постоянный
Bit rate : 1509 Кбит/сек
Channel(s) : 6 каналов
Channel positions : Front: L C R, Side: L R, LFE
Sampling rate : 48,0 КГц
Frame rate : 93,750 кадра/сек (512 spf)
Bit depth : 24 бит
Compression mode : С потерями
Stream size : 1,22 Гбайт (8%)
Title : Одноголосый закадровый, М.Чадов
Language : Russian
Default : Нет
Forced : Нет

Аудио #4
ID : 5
Format : DTS
Format/Info : Digital Theater Systems
Mode : 16
Format settings, Endianness : Big
Codec ID : A_DTS
Duration : 1 ч. 55 м.
Bit rate mode : Постоянный
Bit rate : 1509 Кбит/сек
Channel(s) : 6 каналов
Channel positions : Front: L C R, Side: L R, LFE
Sampling rate : 48,0 КГц
Frame rate : 93,750 кадра/сек (512 spf)
Bit depth : 24 бит
Compression mode : С потерями
Stream size : 1,22 Гбайт (8%)
Language : English
Default : Нет
Forced : Нет

Текст #1
ID : 6
Format : UTF-8
Codec ID : S_TEXT/UTF8
Codec ID/Info : UTF-8 Plain Text
Title : Full
Language : Russian
Default : Нет
Forced : Нет

Текст #2
ID : 7
Format : UTF-8
Codec ID : S_TEXT/UTF8
Codec ID/Info : UTF-8 Plain Text
Title : Full
Language : English
Default : Нет
Forced : Нет

Текст #3
ID : 8
Format : UTF-8
Codec ID : S_TEXT/UTF8
Codec ID/Info : UTF-8 Plain Text
Title : SDH
Language : English
Default : Нет
Forced : Нет

Меню
00:00:00.000 : en:00:00:00.000
00:10:41.683 : en:00:10:41.683
00:21:07.308 : en:00:21:07.308
00:29:12.876 : en:00:29:12.876
00:40:12.744 : en:00:40:12.744
00:50:50.464 : en:00:50:50.464
01:01:02.033 : en:01:01:02.033
01:10:15.420 : en:01:10:15.420
01:19:59.086 : en:01:19:59.086
01:29:40.709 : en:01:29:40.709
01:40:10.338 : en:01:40:10.338
01:48:35.801 : en:01:48:35.801
01:50:49.977 : en:01:50:49.977


Внимание! AdBlock блокирует показ скриншотов, все вопросы к разработчикам )))
Трекер:  [ 24-Сен-2016 12:30 ]

  

Скачать .torrent

Размер .torrent файла 77 KB


Размер: 15.3 GB
Хэш (hash) релиза: d5cb6cd195a9b162870bf84da9b9662dd133d7c5
Подписка на обновления:

Торренты, похожие на Славные парни The Nice Guys скачать торрент

Форум Название Автор Размер S L Добавлен
Зарубежные фильмы 2016-2019 (Новинки зарубежного кино) ·%· Славные парни / The Nice Guys (2016) WEBRip 2160p от MediaClub | HDR | D, P2, A Galfimbul 2150668689620.03 GB 0 0 1532168410

13:20

21-Июл-18

Зарубежные фильмы до 2016 ·· Славные парни / The Nice Guys (Шейн Блэк / Shane Black) [2016, США, Великобритания, криминал, комедия, боевик, DVD9] Dub Galfimbul 70661263366.58 GB 0 0 1524499286

19:01

23-Апр-18

Зарубежные фильмы до 2016 ·· Славные парни / The Nice Guys (Шейн Блэк / Shane Black) [2016, США, Великобритания, криминал, комедия, BDRip 720p] Dub (BD RUS) + DVO (Кубик в Кубе) + VO (М.Чадов) + Sub Rus, Eng + Original Eng Galfimbul 66245216286.17 GB 0 0 1485188770

19:26

23-Янв-17

Зарубежные фильмы до 2016 ·· Славные парни / The Nice Guys (Шейн Блэк / Shane Black) [2016, США, Великобритания, криминал, комедия, Blu-ray disc 1080p] [RUS] Dub Galfimbul 2249557545420.95 GB 0 0 1476130306

23:11

10-Окт-16

Зарубежные фильмы до 2016 ·· Славные парни / The Nice Guys (Шейн Блэк / Shane Black) [2016, США, Великобритания, криминал, комедия, BDRip 1080p] Dub (BD RUS) + DVO (Кубик в Кубе) + VO (М.Чадов) + Sub Rus, Eng + Original Eng Galfimbul 1740487590916.21 GB 0 0 1475357680

00:34

2-Окт-16

Зарубежные фильмы до 2016 ·· Славные парни / The Nice Guys (Шейн Блэк / Shane Black) [2016, США, Великобритания, криминал, комедия, BDRip 1080p] Dub (iTunes) + DVO (Кубик в Кубе) + Sub Rus, Eng + Original Eng Galfimbul 1511398724114.08 GB 0 0 1472153773

22:36

25-Авг-16

Зарубежные фильмы до 2016 ·· Славные парни / The Nice Guys (Шейн Блэк / Shane Black) [2016, США, Великобритания, криминал, комедия, BDRemux 1080p] Dub (iTunes) + DVO (Кубик в Кубе) + Sub Rus, Eng + Original Eng Galfimbul 3143667234829.28 GB 0 0 1471944825

12:33

23-Авг-16

Зарубежные фильмы до 2016 ·· Славные парни / The Nice Guys (Шейн Блэк / Shane Black) [2016, США, Великобритания, криминал, комедия, BDRemux 1080p] Dub (iTunes) + Sub Rus, Eng + Original Eng Galfimbul 2817217350726.24 GB 0 0 1471727934

00:18

21-Авг-16

Зарубежные фильмы до 2016 ·· Славные парни / The Nice Guys (Шейн Блэк / Shane Black) [2016, США, Великобритания, криминал, комедия, BDRip 720p] Dub (iTunes) + Sub Rus, Eng + Original Eng Galfimbul 60447033055.63 GB 0 0 1471727929

00:18

21-Авг-16

Зарубежные фильмы до 2016 ·· Славные парни / The Nice Guys (Шейн Блэк / Shane Black) [2016, США, Великобритания, криминал, комедия, BDRemux 1080p] Dub (iTunes) + Original (Eng) + Sub (Eng) Galfimbul 2761845585925.72 GB 0 0 1470990636

11:30

12-Авг-16

Зарубежные фильмы 2016-2019 (Новинки зарубежного кино) ·· Славные парни / The Nice Guys (Шейн Блэк / Shane Black) [2016, США, Криминал, комедия, BDRip-AVC] Dub + Original + Subs (rus, eng) Galfimbul 22071579852.06 GB 0 0 1470915390

14:36

11-Авг-16

Зарубежные фильмы 2016-2019 (Новинки зарубежного кино) ·· Славные парни / The Nice Guys (Шейн Блэк / Shane Black) [2016, США, Великобритания, криминал, комедия, BDRip 720p] iTunes Galfimbul 81654479327.6 GB 0 0 1470706835

04:40

9-Авг-16

Зарубежные фильмы 2016-2019 (Новинки зарубежного кино) ·· Славные парни / The Nice Guys (Шейн Блэк / Shane Black) [2016, США, Великобритания, криминал, комедия, HDRip] iTunes Galfimbul 14694338561.37 GB 0 0 1470546698

08:11

7-Авг-16

Зарубежные фильмы 2016-2019 (Новинки зарубежного кино) ·· Славные парни / The Nice Guys (Шейн Блэк / Shane Black) [2016, США, Великобритания, криминал, комедия, HDRip] iTunes Galfimbul 22112235522.06 GB 0 0 1470546692

08:11

7-Авг-16

Зарубежные фильмы 2016-2019 (Новинки зарубежного кино) ·· Славные парни / The Nice Guys (Шейн Блэк / Shane Black) [2016, США, Великобритания, криминал, комедия, BDRip 720p] iTunes Galfimbul 62015927505.78 GB 0 0 1470546686

08:11

7-Авг-16

Зарубежные фильмы 2016-2019 (Новинки зарубежного кино) ·· Славные парни / The Nice Guys (Шейн Блэк / Shane Black) [2016, США, Великобритания, криминал, комедия, BDRip 1080p] iTunes Galfimbul 97230309809.06 GB 0 0 1470546681

08:11

7-Авг-16

Зарубежные фильмы до 2016 ·· Славные парни / The Nice Guys (Шейн Блэк / Shane Black) [2016, США, Великобритания, криминал, комедия, WEB-DL 1080p] Dub (iTunes) Galfimbul 40013618063.73 GB 0 0 1469967887

15:24

31-Июл-16

Зарубежные фильмы 2016-2019 (Новинки зарубежного кино) ·· Славные парни / The Nice Guys (Шейн Блэк / Shane Black) [2016, США, Криминал, комедия, WEB-DLRip-AVC] Dub (iTunes) Galfimbul 15577883181.45 GB 0 0 1469745007

01:30

29-Июл-16

Зарубежные фильмы 2016-2019 (Новинки зарубежного кино) ·· Славные парни / The Nice Guys (Шейн Блэк / Shane Black) [2016, США, Великобритания, Криминал, комедия, WEB-DL 720] iTunes Galfimbul 36637083203.41 GB 0 0 1469701505

13:25

28-Июл-16

Еще никто не оставлял запись к записи скачать торрент Славные парни The Nice Guys . Будь первым!

!Обратная связь