Скачать через торрент По следу Skiptrace Фильм бесплатно в хорошем качестве torrent

Скачивайте на UnionPeer.org фильмы через торрент без регистрации. Новинки кино в хорошем качестве через торрент. На UnionPeer.org можно скачать через торрент фильмы 2014 и 2015 годов. Самые новые фильмы.

Скачать торрент По следу Skiptrace бесплатно через .torrent фильм мультфильм сериал

Статистика раздачи
Размер:  747 MB   |    Зарегистрирован:  7 лет 4 месяца   |    .torrent скачан:  95 раз   |   
Раздают:  1  
 

Скачать По следу / Skiptrace (Ренни Харлин / Renny Harlin) [2016, США, Китай, Гонконг, Боевик, комедия, WEB-DLRip] MVO (Студия "Paradox" & Omskbird records) через torrent

 
 
Автор Сообщение

Galfimbul

avatar Galfimbul


По следу / Skiptrace

Страна: США, Китай, Гонконг
Жанр: Боевик, комедия
Год выпуска: 2016
Продолжительность: 01:47:51

Перевод: Профессиональный (многоголосый закадровый) Студия "Paradox" & Omskbird records
Cубтитры: нет
Режиссер: Ренни Харлин / Renny Harlin

В ролях: Джеки Чан, Джонни Ноксвилл, Бинбин Фань, Эрик Цан, Ив Торрес, Уинстон Чао, Ланьсинь Чжан, Майкл Вонг, Джоэль Адриан, Пьер Бурдо

Описание: Главный герой фильма полицейский по имени Чен, который был отстранен от работы в связи с пособничеством и убийство. Но конечно же честный полицейский не делал этого. Еще недавно шел по следам мафиози и вот-вот добрался бы до самого сердца преступности, но теперь самому герою приходиться отбиваться от преступников, ведь была украдена его родная красавица племянница. Мужчина должен сделать все возможное, что найти и освободить родственницу....

Сэмпл: http://multi-up.com/1120212

Качество видео: WEB-DLRip (Исходник Skiptrace.2016.WEB-DL.720p.mkv)
Формат видео: AVI

Видео: XviD, 704x288, (2,40:1), 23,976 fps, 766 Кбит/с, 8 бит
Аудио: Русский (АС3, 2 ch (Front: L R), 48,0 KHz, 192 Kbps)
Общее
Полное имя : F:\Видеофильмы\В и д е о\По следу (Боевик, комедия 2016 год).avi
Формат : AVI
Формат/Информация : Audio Video Interleave
Размер файла : 747 Мбайт
Продолжительность : 1 ч. 47 м.
Общий поток : 969 Кбит/сек
Программа кодирования : VirtualDubMod 1.5.10.3 | www.virtualdub-fr.org || (build 2550/release)
Библиотека кодирования : VirtualDubMod build 2550/release

Видео
Идентификатор : 0
Формат : MPEG-4 Visual
Профиль формата : Advanced Simple@L5
Параметр BVOP формата : 2
Параметр QPel формата : Нет
Параметр GMC формата : Без точки перехода
Параметр матрицы формата : Выборочная
Идентификатор кодека : XVID
Идентификатор кодека/Подсказка : XviD
Продолжительность : 1 ч. 47 м.
Битрейт : 767 Кбит/сек
Ширина : 704 пикселя
Высота : 288 пикселей
Соотношение сторон : 2,40:1
Частота кадров : 23,976 (23976/1000) кадра/сек
Цветовое пространство : YUV
Субдискретизация насыщенности : 4:2:0
Битовая глубина : 8 бит
Тип развёртки : Прогрессивная
Метод сжатия : С потерями
Бит/(Пиксели*Кадры) : 0.158
Размер потока : 591 Мбайт (79%)
Библиотека кодирования : XviD 1.2.1 (UTC 2008-12-04)

Аудио
Идентификатор : 1
Формат : AC-3
Формат/Информация : Audio Coding 3
Расширение режима : CM (complete main)
Параметр Endianness формата : Big
Идентификатор кодека : 2000
Продолжительность : 1 ч. 47 м.
Вид битрейта : Постоянный
Битрейт : 192 Кбит/сек
Каналы : 2 канала
Расположение каналов : Front: L R
Частота : 48,0 КГц
Частота кадров : 31,250 кадров/сек (1536 spf)
Метод сжатия : С потерями
Размер потока : 148 Мбайт (20%)
Выравнивание : Разделение по промежуткам
Продолжительность промежутка : 42 мс. (1,00 видеокадр)
Время предзагрузки промежутка : 500 мс.


Внимание! AdBlock блокирует показ скриншотов, все вопросы к разработчикам )))
Трекер:  [ 30-Сен-2016 07:30 ]

  

Скачать .torrent

Размер .torrent файла 15 KB


Размер: 747 MB
Хэш (hash) релиза: 724b887bcfab24d009de0f5cb9654359ef48522e
Подписка на обновления:

Торренты, похожие на По следу Skiptrace скачать торрент

Форум Название Автор Размер S L Добавлен
Зарубежные фильмы 2016-2019 (Новинки зарубежного кино) ·%· Отпетые напарники / По следу / Skiptrace (2015) BDRip-HEVC 1080p | D, P | iTunes Galfimbul 71124043386.62 GB 0 0 1561474242

17:50

25-Июн-19

Зарубежные фильмы 2016-2019 (Новинки зарубежного кино) ·· Отпетые напарники / По следу / Skiptrace (Ренни Харлин) [2016, Боевик, Комедия, BDRemux 1080p] iTunes Galfimbul 1923946326417.92 GB 0 0 1489101115

02:11

10-Мар-17

Азиатские фильмы ·· Отпетые напарники / По следу / Skiptrace / Jue di tao wang (Ренни Харлин / Renny Harlin) [2016, Китай, Гонконг, США, боевик, комедия, приключения, BDRip 720p] Dub (iTunes) + Sub Eng + Original Eng Galfimbul 66770448966.22 GB 0 0 1488749463

00:31

6-Мар-17

Азиатские фильмы ·· Отпетые напарники / По следу / Skiptrace (Ренни Харлин / Renny Harlin) [2016, Китай, Гонконг, США, боевик, комедия, приключения HDRip] Dub (iTunes) Galfimbul 15159757721.41 GB 0 0 1488567654

22:00

3-Мар-17

Зарубежные фильмы 2016-2019 (Новинки зарубежного кино) ·· По следу / Skiptrace (Ренни Харлин) [2016, боевик, комедия, BDRip 720p] Galfimbul 83060634037.74 GB 0 0 1476243683

06:41

12-Окт-16

Азиатские фильмы ·· По следу / Skiptrace (Ренни Харлин / Renny Harlin) [2016, Гонконг, США, Китай, боевик, комедия, WEB-DLRip] MVO (СПД) + Original + Sub (Eng) Galfimbul 18774080001.75 GB 0 0 1473262106

18:28

7-Сен-16

Зарубежные фильмы 2016-2019 (Новинки зарубежного кино) ·· По следу / Skiptrace (Ренни Харлин) [2016, боевик, комедия, WEB-DLRip] Galfimbul 22012754582.05 GB 0 0 1473161937

14:38

6-Сен-16

Зарубежные фильмы 2016-2019 (Новинки зарубежного кино) ·· По следу / Skiptrace (Ренни Харлин) [2016, боевик, комедия, WEB-DL 1080p] Galfimbul 42817865283.99 GB 0 0 1473035986

03:39

5-Сен-16

Зарубежные фильмы 2016-2019 (Новинки зарубежного кино) ·· По следу / Skiptrace (Ренни Харлин) [2016, боевик, комедия, WEB-DL 720p] Galfimbul 36829050513.43 GB 0 0 1473035982

03:39

5-Сен-16

Зарубежные фильмы 2016-2019 (Новинки зарубежного кино) ·· По следу / Skiptrace (Ренни Харлин) [2016, боевик, комедия, WEB-DLRip] Galfimbul 14677667841.37 GB 0 0 1472982451

12:47

4-Сен-16

Зарубежные фильмы 2016-2019 (Новинки зарубежного кино) ·· По следу / Skiptrace (Ренни Харлин) [2016, боевик, комедия, TC] Galfimbul 15641579521.46 GB 0 0 1472283953

10:45

27-Авг-16

Зарубежные фильмы 2016-2019 (Новинки зарубежного кино) ·T· По следу / Skiptrace (Ренни Харлин) [2016 г., боевик, комедия, TC 1080p] MVO Galfimbul 29024493862.7 GB 0 0 1472278320

09:12

27-Авг-16

Еще никто не оставлял запись к записи скачать торрент По следу Skiptrace . Будь первым!

!Обратная связь