Скачать через торрент Вуаль The Veil Фильм бесплатно в хорошем качестве torrent

Скачивайте на UnionPeer.org фильмы через торрент без регистрации. Новинки кино в хорошем качестве через торрент. На UnionPeer.org можно скачать через торрент фильмы 2014 и 2015 годов. Самые новые фильмы.

Скачать торрент Вуаль The Veil бесплатно через .torrent фильм мультфильм сериал

Статистика раздачи
Размер:  3.59 GB   |    Зарегистрирован:  7 лет 4 месяца   |    .torrent скачан:  46 раз   |   
Раздают:  1  
 

Скачать Вуаль / The Veil (Фил Джоану / Phil Joanou) [2016, США, ужасы, триллер, драма, BDRip 720p] Dub (iTunes) + Sub Rus, Eng + Original Eng через torrent

 
 
Автор Сообщение

Galfimbul

avatar Galfimbul


Вуаль / The Veil

Страна: США
Студия: Blumhouse Productions
Жанр: ужасы, триллер, драма
Год выпуска: 2016
Продолжительность: 01:33:30

Перевод: Профессиональный (дублированный) iTunes
Cубтитры: Rus, Eng
Оригинальная аудиодорожка: английский

Режиссер: Фил Джоану / Phil Joanou

В ролях: Джессика Альба, Томас Джейн, Лили Рэйб, Шеннон Мари Вудворд, Рейд Скотт, Алекса Палладино, Ленни Джейкобсон, Айви Джордж, Джек Де Сена, Sandra Rosko

Описание: Спустя тридцать лет после того, как члены религиозного культа совершили массовое самоубийство, единственный выживший из них возвращается на место трагедии, прихватив с собой группу кинодокументалистов.



Тип релиза: BDRip 720p
Контейнер: MKV

Видео: MPEG-4 AVC, 5393 Кбит/с, 1280x534, 23,976 fps
Аудио: Rus, AC3, 192 kb/s (2 ch), 48 kHz
Аудио 2: Rus, AC3, 640 kb/s (6 ch), 48 kHz
Формат субтитров: softsub (SRT)
Format : Matroska
Format version : Version 4 / Version 2
File size : 3.59 GiB
Duration : 1h 33mn
Overall bit rate : 5 489 Kbps
Movie name : Вуаль. (Tonik)
Encoded date : UTC 2016-10-14 16:46:29
Writing application : mkvmerge v7.1.0 ('Good Love') 64bit built on Jul 27 2014 13:06:55
Writing library : libebml v1.3.0 + libmatroska v1.4.1
_STATISTICS_WRITING_APP : mkvmerge v7.1.0 ('Good Love') 64bit built on Jul 27 2014 13:06:55
_STATISTICS_WRITING_DATE_UTC : 2016-10-14 16:46:29
_STATISTICS_TAGS : BPS DURATION NUMBER_OF_FRAMES NUMBER_OF_BYTES
DURATION : 01:33:31.648000000
NUMBER_OF_FRAMES : 175364
NUMBER_OF_BYTES : 134679552

Video
ID : 1
Format : AVC
Format/Info : Advanced Video Codec
Format profile : [email protected]
Format settings, CABAC : Yes
Format settings, ReFrames : 12 frames
Codec ID : V_MPEG4/ISO/AVC
Duration : 1h 33mn
Bit rate : 4 548 Kbps
Width : 1 280 pixels
Height : 534 pixels
Display aspect ratio : 2.40:1
Frame rate mode : Constant
Frame rate : 23.976 fps
Color space : YUV
Chroma subsampling : 4:2:0
Bit depth : 8 bits
Scan type : Progressive
Bits/(Pixel*Frame) : 0.277
Stream size : 2.97 GiB (83%)
Writing library : x264 core 148 r2665 a01e339
Encoding settings : cabac=1 / ref=12 / deblock=1:-3:-3 / analyse=0x3:0x133 / me=umh / subme=11 / psy=1 / psy_rd=1.00:0.00 / mixed_ref=1 / me_range=32 / chroma_me=1 / trellis=2 / 8x8dct=1 / cqm=0 / deadzone=21,11 / fast_pskip=0 / chroma_qp_offset=-2 / threads=6 / lookahead_threads=1 / sliced_threads=0 / nr=0 / decimate=0 / interlaced=0 / bluray_compat=0 / constrained_intra=0 / bframes=12 / b_pyramid=2 / b_adapt=2 / b_bias=0 / direct=3 / weightb=1 / open_gop=0 / weightp=2 / keyint=250 / keyint_min=24 / scenecut=40 / intra_refresh=0 / rc_lookahead=60 / rc=crf / mbtree=0 / crf=16.4 / qcomp=0.76 / qpmin=0 / qpmax=69 / qpstep=4 / vbv_maxrate=38000 / vbv_bufsize=30000 / crf_max=0.0 / nal_hrd=none / filler=0 / ip_ratio=1.40 / pb_ratio=1.23 / aq=2:0.64
Language : English
Default : Yes
Forced : No
_STATISTICS_WRITING_APP : mkvmerge v7.1.0 ('Good Love') 64bit built on Jul 27 2014 13:06:55
_STATISTICS_WRITING_DATE_UTC : 2016-10-14 16:46:29
_STATISTICS_TAGS : BPS DURATION NUMBER_OF_FRAMES NUMBER_OF_BYTES
DURATION : 01:33:30.897000000
NUMBER_OF_FRAMES : 134527
NUMBER_OF_BYTES : 3264866918

Audio #1
ID : 2
Format : AC-3
Format/Info : Audio Coding 3
Mode extension : CM (complete main)
Format settings, Endianness : Big
Codec ID : A_AC3
Duration : 1h 33mn
Bit rate mode : Constant
Bit rate : 192 Kbps
Channel(s) : 2 channels
Channel positions : Front: L R
Sampling rate : 48.0 KHz
Bit depth : 16 bits
Compression mode : Lossy
Stream size : 128 MiB (3%)
Title : iTunes
Language : Russian
Default : Yes
Forced : No

Audio #2
ID : 3
Format : AC-3
Format/Info : Audio Coding 3
Mode extension : CM (complete main)
Format settings, Endianness : Big
Codec ID : A_AC3
Duration : 1h 33mn
Bit rate mode : Constant
Bit rate : 640 Kbps
Channel(s) : 6 channels
Channel positions : Front: L C R, Side: L R, LFE
Sampling rate : 48.0 KHz
Bit depth : 16 bits
Compression mode : Lossy
Stream size : 428 MiB (12%)
Language : English
Default : No
Forced : No

Text #1
ID : 4
Format : UTF-8
Codec ID : S_TEXT/UTF8
Codec ID/Info : UTF-8 Plain Text
Title : Forced
Language : Russian
Default : Yes
Forced : No

Text #2
ID : 5
Format : UTF-8
Codec ID : S_TEXT/UTF8
Codec ID/Info : UTF-8 Plain Text
Language : Russian
Default : No
Forced : No

Text #3
ID : 6
Format : UTF-8
Codec ID : S_TEXT/UTF8
Codec ID/Info : UTF-8 Plain Text
Language : English
Default : No
Forced : No

Text #4
ID : 7
Format : UTF-8
Codec ID : S_TEXT/UTF8
Codec ID/Info : UTF-8 Plain Text
Title : SDH
Language : English
Default : No
Forced : No

Menu
00:00:00.000 : en:Chapter 01
00:06:26.886 : en:Chapter 02
00:15:02.401 : en:Chapter 03
00:21:43.928 : en:Chapter 04
00:29:16.254 : en:Chapter 05
00:35:21.077 : en:Chapter 06
00:44:29.417 : en:Chapter 07
00:50:43.040 : en:Chapter 08
01:00:10.816 : en:Chapter 09
01:06:31.779 : en:Chapter 10
01:12:19.835 : en:Chapter 11
01:20:54.266 : en:Chapter 12


Внимание! AdBlock блокирует показ скриншотов, все вопросы к разработчикам )))
Трекер:  [ 17-Окт-2016 23:00 ]

  

Скачать .torrent

Размер .torrent файла 18 KB


Размер: 3.59 GB
Хэш (hash) релиза: 12c7c2c3c255eb9b9745b1ab616998c5faeb266b
Подписка на обновления:

Торренты, похожие на Вуаль The Veil скачать торрент

Форум Название Автор Размер S L Добавлен
Зарубежные фильмы 2016-2019 (Новинки зарубежного кино) ·· Вуаль / The Veil (Фил Джоану / Phil Joanou) [2016, США, ужасы, WEB-DLRip] Galfimbul 14677135361.37 GB 0 0 1493325697

23:41

27-Апр-17

Зарубежные фильмы 2016-2019 (Новинки зарубежного кино) ·· Вуаль / The Veil (Фил Джоану / Phil Joanou) [2016, США, ужасы, BDRip] Dub Galfimbul 15703838721.46 GB 0 0 1476557176

21:46

15-Окт-16

Зарубежные фильмы 2016-2019 (Новинки зарубежного кино) ·· Вуаль / The Veil (Фил Джоану / Phil Joanou) [2016, США, ужасы, BDRip] Dub Galfimbul 781395968745 MB 0 0 1476557163

21:46

15-Окт-16

Зарубежные фильмы 2016-2019 (Новинки зарубежного кино) ·· Вуаль / The Veil (Фил Джоану / Phil Joanou) [2016, США, ужасы, BDRip 1080p] Line Galfimbul 71116004066.62 GB 0 0 1467948482

06:28

8-Июл-16

Зарубежные фильмы 2016-2019 (Новинки зарубежного кино) ·· Вуаль / The Veil (Фил Джоану / Phil Joanou) [2016, США, ужасы, BDRip 720p] Чистый звук Galfimbul 38183604863.56 GB 0 0 1467938410

03:40

8-Июл-16

Зарубежные фильмы 2016-2019 (Новинки зарубежного кино) ·· Вуаль / The Veil (Фил Джоану / Phil Joanou) [2016, США, ужасы, HDRip] Line Galfimbul 14677360641.37 GB 0 0 1467925910

00:11

8-Июл-16

Зарубежные фильмы 2016-2019 (Новинки зарубежного кино) ·· Вуаль / The Veil (Фил Джоану / Phil Joanou) [2016, США, ужасы, HDRip] DVO (den904 & DeadSno) Galfimbul 15435673601.44 GB 0 0 1461669937

14:25

26-Апр-16

Зарубежные фильмы 2016-2019 (Новинки зарубежного кино) ·· Вуаль / The Veil (Фил Джоану / Phil Joanou) [2016, США, ужасы, WEB-DLRip] DVO (den904 & DeadSno) + Original Eng Galfimbul 15628492801.46 GB 0 0 1453806272

14:04

26-Янв-16

Зарубежные фильмы до 2016 ·· Разрисованная вуаль / The Painted Veil (Джон Керран) [2006, Китай, США, Мелодрама, Романтика, DVD9] Galfimbul 73375703046.83 GB 0 0 1503434193

23:36

22-Авг-17

Зарубежные фильмы до 2016 ·· Разрисованная вуаль / The Painted Veil (Джон Кёрран / John Curran) [2006, США, Канада, Китай, драма, мелодрама, BDRip 1080p] Galfimbul 100935900399.4 GB 0 0 1499377021

00:37

7-Июл-17

Зарубежные фильмы до 2016 ·· Разрисованная вуаль / The Painted Veil (Джон Керран) [2006, драма, HDTVRip 720p] Galfimbul 57610272515.37 GB 0 0 1497072983

08:36

10-Июн-17

Зарубежные фильмы до 2016 ·· Седьмая вуаль / The Seventh Veil (Комптон Беннет / Compton Bennett) [1945, Великобритания, психологическая драма, мелодрама, WEB-DL 720p] VO + Sub Rus, Eng + Original Eng Galfimbul 30972522982.88 GB 0 0 1427222595

21:43

24-Мар-15

Зарубежные фильмы до 2016 ·· Разрисованная вуаль / The Painted Veil (Ричард Болеславский / Richard Boleslawski) [1934, США, драма, DVD5 (Custom)] MVO + Sub Rus + Original Eng Galfimbul 45291008004.22 GB 0 0 1376037964

11:46

9-Авг-13

Зарубежные фильмы до 2016 ·· Разрисованная вуаль / The Painted Veil (Джон Кьюррен /John Curran) [2006 г., драма, мелодрама, BDRip] Dub Galfimbul 15661731841.46 GB 0 0 1352574600

22:10

10-Ноя-12

Зарубежные фильмы до 2016 ·· Разрисованная вуаль / The Painted Veil (Джон Кёрран / John Curran) [2006, США, Канада, Китай, Мелодрама, HDRip] AVO (Немахов) Galfimbul 15575449601.45 GB 0 0 1336142160

17:36

4-Май-12

Зарубежные фильмы до 2016 ·· Разрисованная вуаль / The Painted Veil (Джон Кёрран / John Curran) [2006, США, Канада, Китай, драма, мелодрама, BDRip 720p] Galfimbul 61638804175.74 GB 0 0 1315486702

15:58

8-Сен-11

Зарубежные фильмы до 2016 ·· Разрисованная вуаль / The Painted Veil (Джон Кёрран / John Curran) [2006, США, Канада, Китай, драма, мелодрама, Blu-ray disc (custom) 1080p [url=https://adult-images.ru/1024/35489/]Смотреть онлайн[/url] [url=https://adult-images.ru/1024/35489/]Смотре Galfimbul 2027022907618.88 GB 0 0 1314641879

21:17

29-Авг-11

Зарубежные фильмы до 2016 ·· Разрисованная вуаль / The Painted Veil (Джон Керран) [1080p [url=https://adult-images.ru/1024/35489/]Смотреть онлайн[/url] [url=https://adult-images.ru/1024/35489/]Смотреть онлайн[/url]] [2006 г., Драма, Мелодрама, BDRip] Nomak 100935900399.4 GB 0 0 1295725872

22:51

22-Янв-11

Зарубежные фильмы до 2016 ·· Разрисованная вуаль / The Painted Veil (Джон Кёрран / John Curran) [2006 г., мелодрама, драма, HDRip-AVC] VitalMedix 15591901851.45 GB 0 0 1287688114

22:08

21-Окт-10

Еще никто не оставлял запись к записи скачать торрент Вуаль The Veil . Будь первым!

!Обратная связь