Скачать через торрент Белоснежка и Охотник 2 The Huntsman: Winters War Фильм бесплатно в хорошем качестве torrent

Скачивайте на UnionPeer.org фильмы через торрент без регистрации. Новинки кино в хорошем качестве через торрент. На UnionPeer.org можно скачать через торрент фильмы 2014 и 2015 годов. Самые новые фильмы.

Скачать торрент Белоснежка и Охотник 2 The Huntsman: Winters War бесплатно через .torrent фильм мультфильм сериал

Статистика раздачи
Размер:  6.78 GB   |    Зарегистрирован:  7 лет 4 месяца   |    .torrent скачан:  89 раз   |   
Раздают:  1  
   
 
Автор Сообщение

Galfimbul

avatar Galfimbul


<span class="post-font-serif1">Белоснежка и Охотник 2 / The Huntsman: Winter's War</span>
<span class="post-font-serif1">Год выпуска: 2016
Страна: США / Universal Pictures
Версия фильма: Театральная версия / Theatrical Cut
Жанр: фэнтези, боевик, драма, приключения
Продолжительность: 01:53:57
Перевод: Профессиональный (дублированный)
+ Профессиональный (многоголосый закадровый) FocusStudio
Cубтитры: русские, англиские
Оригинальная аудиодорожка: английский
Режиссер: Седрик Николя-Троян / Cedric Nicolas-Troyan
В ролях: Крис Хемсворт, Шарлиз Терон, Джессика Честейн, Эмили Блант, Ник Фрост, Роб Брайдон, Шеридан Смит, Александра Роуч, Сопе Дирису, Сэм Хэзелдайн, Сэм Клафлин, Софи Куксон, Конрад Кхан, Ниам Уолтер, Нана Аджйеман-Бедьяко, Амелия Крауч, Фред Татаскьор, Ралф Айнесон, Линн Уилмот, Колин Морган.
Описание: Злая колдунья Равенна уничтожена. На трон королевства Табор восходит Белоснежка, неся в сказочный мир добро, радость и низкие налоги. Но сестра Равенны, ледяная королева Фрейя, готовит рабочий план по досрочному наступлению нового ледникового периода с помощью волшебного зеркала и своей армии специально обученных воинов, не ведающих человеческих слабостей. Ей противостоят бесстрашный охотник Эрик и его возлюбленная Сара.
Тип релиза: BDRip 720p (VietHD)
Контейнер: MKV | Sample
Видео: 1280x536 at 23.976 fps, [email protected], crf, ~6042 kbps avg
Аудио 1: Russian 48 kHz, DTS, 3/2 (L,C,R,l,r) + LFE ch, ~768.00 kbps avg | Дубляж BD EUR
Аудио 2: Russian 48 kHz, AC3, 2/0 (L,R) ch, ~192.00 kbps avg | MVO FocusStudio
Аудио 3: English 48 kHz, DTS, 3/2 (L,C,R,l,r) + LFE ch, ~1509.00 kbps avg | Original
Субтитры: русские (форсированные, полные, полные Анастасия Кисиленко), английские (полные, полные SDH)</span>
<span class="post-font-serif1">Формат : Matroska
Версия формата : Version 4 / Version 2
Размер файла : 6,78 Гбайт
Продолжительность : 1 ч. 53 м.
Общий поток : 8514 Кбит/сек
Название фильма : Белоснежка и Охотник 2 / The Huntsman Winter's War / 2016
Дата кодирования : UTC 2016-10-18 16:02:39
Программа кодирования : mkvmerge v9.3.1 ('Mask Machine') 32bit
Библиотека кодирования : libebml v1.3.4 + libmatroska v1.4.5

Видео
Идентификатор : 1
Формат : AVC
Формат/Информация : Advanced Video Codec
Профиль формата : [email protected]
Параметр CABAC формата : Да
Параметр ReFrames формата : 12 кадров
Идентификатор кодека : V_MPEG4/ISO/AVC
Продолжительность : 1 ч. 53 м.
Битрейт : 6042 Кбит/сек
Ширина : 1280 пикселей
Высота : 536 пикселей
Соотношение сторон : 2,40:1
Режим частоты кадров : Постоянный
Частота кадров : 23,976 (24000/1001) кадра/сек
Цветовое пространство : YUV
Субдискретизация насыщенности : 4:2:0
Битовая глубина : 8 бит
Тип развёртки : Прогрессивная
Бит/(Пиксели*Кадры) : 0.367
Размер потока : 4,81 Гбайт (71%)
Заголовок : VietHD
Библиотека кодирования : x264 core 148 r2705kMod 3f5ed56
Настройки программы : cabac=1 / ref=12 / deblock=1:-3:-3 / analyse=0x3:0x133 / me=umh / subme=10 / psy=1 / fade_compensate=0.00 / psy_rd=1.05:0.00 / mixed_ref=1 / me_range=24 / chroma_me=1 / trellis=2 / 8x8dct=1 / cqm=0 / deadzone=21,11 / fast_pskip=0 / chroma_qp_offset=-2 / threads=12 / lookahead_threads=2 / sliced_threads=0 / nr=0 / decimate=0 / interlaced=0 / bluray_compat=0 / constrained_intra=0 / fgo=0 / bframes=8 / b_pyramid=2 / b_adapt=2 / b_bias=0 / direct=3 / weightb=1 / open_gop=0 / weightp=2 / keyint=250 / keyint_min=23 / scenecut=40 / intra_refresh=0 / rc_lookahead=60 / rc=crf / mbtree=0 / crf=15.6000 / qcomp=0.60 / qpmin=0 / qpmax=69 / qpstep=4 / vbv_maxrate=62500 / vbv_bufsize=78125 / crf_max=0.0 / nal_hrd=none / filler=0 / ip_ratio=1.30 / pb_ratio=1.20 / aq=3:0.75
Язык : English
Default : Да
Forced : Нет
Цветовой диапазон : Limited
Коэффициенты матрицы : BT.709

Аудио #1
Идентификатор : 2
Формат : DTS
Формат/Информация : Digital Theater Systems
Режим : 16
Параметр Endianness формата : Big
Идентификатор кодека : A_DTS
Продолжительность : 1 ч. 53 м.
Вид битрейта : Постоянный
Битрейт : 768 Кбит/сек
Каналы : 6 каналов
Расположение каналов : Front: L C R, Side: L R, LFE
Частота : 48,0 КГц
Частота кадров : 93,750 кадра/сек (512 spf)
Битовая глубина : 24 бит
Метод сжатия : С потерями
Размер потока : 626 Мбайт (9%)
Заголовок : DUB BD EUR
Язык : Russian
Default : Да
Forced : Нет

Аудио #2
Идентификатор : 3
Формат : AC-3
Формат/Информация : Audio Coding 3
Расширение режима : CM (complete main)
Параметр Endianness формата : Big
Идентификатор кодека : A_AC3
Продолжительность : 1 ч. 53 м.
Вид битрейта : Постоянный
Битрейт : 192 Кбит/сек
Каналы : 2 канала
Расположение каналов : Front: L R
Частота : 48,0 КГц
Частота кадров : 31,250 кадров/сек (1536 spf)
Метод сжатия : С потерями
Размер потока : 156 Мбайт (2%)
Заголовок : MVO FocusStudio
Язык : Russian
Default : Нет
Forced : Нет

Аудио #3
Идентификатор : 4
Формат : DTS
Формат/Информация : Digital Theater Systems
Режим : 16
Параметр Endianness формата : Big
Идентификатор кодека : A_DTS
Продолжительность : 1 ч. 53 м.
Вид битрейта : Постоянный
Битрейт : 1509 Кбит/сек
Каналы : 6 каналов
Расположение каналов : Front: L C R, Side: L R, LFE
Частота : 48,0 КГц
Частота кадров : 93,750 кадра/сек (512 spf)
Битовая глубина : 24 бит
Метод сжатия : С потерями
Размер потока : 1,20 Гбайт (18%)
Заголовок : Original
Язык : English
Default : Нет
Forced : Нет

Текст #1
Идентификатор : 5
Формат : UTF-8
Идентификатор кодека : S_TEXT/UTF8
Идентификатор кодека/Информация : UTF-8 Plain Text
Продолжительность : 25 м. 28 с.
Битрейт : 0 бит/сек
Count of elements : 3
Размер потока : 117 байт (0%)
Заголовок : Forced
Язык : Russian
Default : Да
Forced : Нет

Текст #2
Идентификатор : 6
Формат : UTF-8
Идентификатор кодека : S_TEXT/UTF8
Идентификатор кодека/Информация : UTF-8 Plain Text
Продолжительность : 1 ч. 43 м.
Битрейт : 61 бит/сек
Count of elements : 1030
Размер потока : 46,6 Кбайт (0%)
Заголовок : Full
Язык : Russian
Default : Нет
Forced : Нет

Текст #3
Идентификатор : 7
Формат : UTF-8
Идентификатор кодека : S_TEXT/UTF8
Идентификатор кодека/Информация : UTF-8 Plain Text
Продолжительность : 1 ч. 43 м.
Битрейт : 62 бит/сек
Count of elements : 978
Размер потока : 47,6 Кбайт (0%)
Заголовок : Full Anastasia Kisilenko
Язык : Russian
Default : Нет
Forced : Нет

Текст #4
Идентификатор : 8
Формат : UTF-8
Идентификатор кодека : S_TEXT/UTF8
Идентификатор кодека/Информация : UTF-8 Plain Text
Продолжительность : 1 ч. 43 м.
Битрейт : 36 бит/сек
Count of elements : 1045
Размер потока : 27,7 Кбайт (0%)
Заголовок : Full
Язык : English
Default : Нет
Forced : Нет

Текст #5
Идентификатор : 9
Формат : UTF-8
Идентификатор кодека : S_TEXT/UTF8
Идентификатор кодека/Информация : UTF-8 Plain Text
Продолжительность : 1 ч. 53 м.
Битрейт : 37 бит/сек
Count of elements : 1247
Размер потока : 31,4 Кбайт (0%)
Заголовок : Full SDH
Язык : English
Default : Нет
Forced : Нет

Меню
00:00:00.000 : en:00:00:00.000
00:06:26.428 : en:00:06:26.428
00:09:26.858 : en:00:09:26.858
00:15:03.194 : en:00:15:03.194
00:21:33.501 : en:00:21:33.501
00:26:52.236 : en:00:26:52.236
00:32:34.744 : en:00:32:34.744
00:36:51.167 : en:00:36:51.167
00:42:17.952 : en:00:42:17.952
00:47:27.261 : en:00:47:27.261
00:54:37.816 : en:00:54:37.816
00:59:26.229 : en:00:59:26.229
01:06:18.975 : en:01:06:18.975
01:10:21.509 : en:01:10:21.509
01:17:45.119 : en:01:17:45.119
01:23:17.492 : en:01:23:17.492
01:28:06.865 : en:01:28:06.865
01:33:28.811 : en:01:33:28.811
01:42:20.760 : en:01:42:20.760
01:44:26.427 : en:01:44:26.427</span>


Внимание! AdBlock блокирует показ скриншотов, все вопросы к разработчикам )))
Трекер:  [ 20-Окт-2016 18:00 ]

  

Скачать .torrent

Размер .torrent файла 34 KB


Размер: 6.78 GB
Хэш (hash) релиза: fa0db9a75225483cf9537b098ee8acd1eec1e8ad
Подписка на обновления:

Торренты, похожие на Белоснежка и Охотник 2 The Huntsman: Winters War скачать торрент

Форум Название Автор Размер S L Добавлен
Зарубежные фильмы до 2016 ·· Белоснежка и Охотник 2 / The Huntsman: Winter's War (Седрик Николя-Троян / Cedric Nicolas-Troyan) [2016, США, фэнтези, боевик, драма, приключения, Blu-ray disc 1080p] [2-in-1: Theatrical & Extended Cut] [EUR] Dub + Sub Rus, Eng + Original Eng Galfimbul 4844018518645.11 GB 0 0 1470655399

14:23

8-Авг-16

Зарубежные фильмы 2016-2019 (Новинки зарубежного кино) ·· Белоснежка и Охотник 2 / The Huntsman Winter's War 2 (Седрик Николя-Троян) [2016, Фэнтези, боевик, драма, приключения, WEBRip 720p] Line Galfimbul 35502319933.31 GB 0 0 1465454589

09:43

9-Июн-16

Зарубежные фильмы до 2016 ·· Белоснежка и Охотник 2 / The Huntsman: Winter's War (Седрик Николя-Троян / Cedric Nicolas-Troyan) [2016, США, Фэнтези, боевик, драма, приключения, DVD9] R5 Dub + Sub Rus + Original Eng Galfimbul 76380446727.11 GB 0 0 1526931064

22:31

21-Май-18

Зарубежные фильмы 2016-2019 (Новинки зарубежного кино) ·· Белоснежка и Охотник 2 / The Huntsman: Winter's War (Седрик Николя-Троян / Cedric Nicolas-Troyan) [2016, США, фэнтези, боевик, драма, приключения, HDRip] Гаврилов Galfimbul 15709388801.46 GB 0 0 1502622009

14:00

13-Авг-17

Зарубежные фильмы до 2016 ·· Белоснежка и Охотник 2 / The Huntsman: Winter's War (Седрик Николя-Троян / Cedric Nicolas-Troyan) [2016, США, фэнтези, боевик, драма, приключения, BDRip 1080p] [Theatrical Cut] Dub BD EUR + MVO FocusStudio + Original Eng + Sub Rus, Eng Galfimbul 1396039746413 GB 0 0 1476979046

18:57

20-Окт-16

Зарубежные фильмы до 2016 ·· Белоснежка и Охотник 2 / The Huntsman: Winter's War (Седрик Николя-Троян / Cedric Nicolas-Troyan) [2016, США, фэнтези, боевик, драма, приключения, BDRip 720p] [Extended Cut] Dub (Blu-ray EUR) + Original (Eng) + Sub (Rus, Ukr, Eng) Galfimbul 88790653478.27 GB 0 0 1471602957

13:35

19-Авг-16

Зарубежные фильмы 2016-2019 (Новинки зарубежного кино) ·· Белоснежка и Охотник 2 / The Huntsman: Winter's War (Седрик Николя-Троян / Cedric Nicolas-Troyan) [2016, США, Фэнтези, боевик, драма, приключения, BDRip-AVC] [Theatrical Cut / Театральная версия] Dub (iTunes) + Sub Rus, Eng + Original Eng Galfimbul 31364196332.92 GB 0 0 1470992556

12:02

12-Авг-16

Зарубежные фильмы 2016-2019 (Новинки зарубежного кино) ·· Белоснежка и Охотник 2 / The Huntsman: Winter's War (Седрик Николя-Троян / Cedric Nicolas-Troyan) [2016, США, фэнтези, боевик, драма, приключения, BDRip-AVC] [Theatrical Cut] Dub + Sub Rus Galfimbul 15687335671.46 GB 0 0 1470992513

12:01

12-Авг-16

Зарубежные фильмы 2016-2019 (Новинки зарубежного кино) ·· Белоснежка и Охотник 2 / The Huntsman: Winter's War (Седрик Николя-Троян / Cedric Nicolas-Troyan) [2016, США, фэнтези, боевик, драма, приключения, BDRip [Extended Cut] Dub Galfimbul 15709388801.46 GB 0 0 1470992505

12:01

12-Авг-16

Зарубежные фильмы 2016-2019 (Новинки зарубежного кино) ·· Белоснежка и Охотник 2 / The Huntsman: Winter's War (Седрик Николя-Троян / Cedric Nicolas-Troyan) [2016, США, фэнтези, драма, приключения, BDRip-AVC] [Расширенная версия / Extended Cut] Dub + Original + Sub (rus, eng) Galfimbul 32748061033.05 GB 0 0 1470992501

12:01

12-Авг-16

Зарубежные фильмы 2016-2019 (Новинки зарубежного кино) ·· Белоснежка и Охотник 2 / The Huntsman: Winter's War (Седрик Николя-Троян / Cedric Nicolas-Troyan) [2016, США, фэнтези, драма, приключения, BDRip] [Расширенная версия / Extended Cut] Dub (BD EUR) + Original + Sub (rus, eng) Galfimbul 27026504822.52 GB 0 0 1470992493

12:01

12-Авг-16

Зарубежные фильмы 2016-2019 (Новинки зарубежного кино) ·· Белоснежка и Охотник 2 / The Huntsman: Winter's War (Седрик Николя-Троян / Cedric Nicolas-Troyan) [2016, США, фэнтези, драма, приключения, BDRip-AVC] [Расширенная версия / Extended Cut] Dub Galfimbul 15684343221.46 GB 0 0 1470992486

12:01

12-Авг-16

Трейлеры и дополнительные материалы ·· Белоснежка и Охотник 2 / The Huntsman: Winter's War (Седрик Николя-Троян / Cedric Nicolas-Troyan) [2016, Фантастика | Фэнтези | Боевик, BDRip 1080p] дополнительные материалы Galfimbul 33570161523.13 GB 0 0 1470671829

18:57

8-Авг-16

Трейлеры и дополнительные материалы ·· Белоснежка и Охотник 2 / The Huntsman: Winter's War (Седрик Николя-Троян / Cedric Nicolas-Troyan) [2016, Фантастика | Фэнтези | Боевик, BDRip 720p] дополнительные материалы Galfimbul 17238863231.61 GB 0 0 1470671825

18:57

8-Авг-16

Зарубежные фильмы до 2016 ·· Белоснежка и Охотник 2 / The Huntsman: Winter's War (Седрик Николя-Троян / Cedric Nicolas-Troyan) [2016, США, фэнтези, боевик, драма, приключения, BDRip 1080p] [Extended Cut] Dub (EUR) + Original Eng + Sub (Rus, Eng) Galfimbul 1582930335514.74 GB 0 0 1470658926

15:22

8-Авг-16

Зарубежные фильмы 2016-2019 (Новинки зарубежного кино) ·· Белоснежка и Охотник 2 / The Huntsman: Winter's War (Седрик Николя-Троян / Cedric Nicolas-Troyan) [2016, США, фэнтези, боевик, драма, приключения, BDRip] Dub (Blu-Ray EUR) + MVO (FocusStudio) + Original Eng + Sub Rus Galfimbul 27432588172.55 GB 0 0 1470641492

10:31

8-Авг-16

Зарубежные фильмы 2016-2019 (Новинки зарубежного кино) ·· Белоснежка и Охотник 2 / The Huntsman: Winter's War (Седрик Николя-Троян) [2016, Фэнтези, боевик, драма, приключения, BDRip 1080p] D, P | Лицензия Galfimbul 1450751577413.51 GB 0 0 1470629519

07:11

8-Авг-16

Зарубежные фильмы 2016-2019 (Новинки зарубежного кино) ·· Белоснежка и Охотник 2 / The Huntsman: Winter's War (Седрик Николя-Троян) [2016, Фэнтези, боевик, драма, приключения, BDRemux 1080p] D, P | Лицензия Galfimbul 2630593089024.5 GB 0 0 1470629514

07:11

8-Авг-16

Зарубежные фильмы 2016-2019 (Новинки зарубежного кино) ·· Белоснежка и Охотник 2 / The Huntsman: Winter's War (Седрик Николя-Троян) [2016, Фэнтези, боевик, драма, приключения, BDRip 720p] Расширенная версия | Лицензия Galfimbul 62568914445.83 GB 0 0 1470615088

03:11

8-Авг-16

Еще никто не оставлял запись к записи скачать торрент Белоснежка и Охотник 2 The Huntsman: Winters War . Будь первым!

!Обратная связь