Скачать через торрент Очень плохие мамочки Bad Moms Фильм бесплатно в хорошем качестве torrent

Скачивайте на UnionPeer.org фильмы через торрент без регистрации. Новинки кино в хорошем качестве через торрент. На UnionPeer.org можно скачать через торрент фильмы 2014 и 2015 годов. Самые новые фильмы.

Скачать торрент Очень плохие мамочки Bad Moms бесплатно через .torrent фильм мультфильм сериал

Статистика раздачи
Размер:  24.4 GB   |    Зарегистрирован:  7 лет 5 месяцев   |    .torrent скачан:  100 раз   |   
Раздают:  1  
 

Скачать Очень плохие мамочки / Bad Moms (Джон Лукас, Скотт Мур) [2016, комедия, BDRemux 1080p] iTunes через torrent

 
 
Автор Сообщение

Galfimbul

avatar Galfimbul


Информация о фильме[u][/u]
Производство: США
Дата мировой премьеры: 20 июля 2016
Дата российской премьеры: 21 июля 2016
Жанр: комедия
Режиссер: Джон Лукас, Скотт Мур
В ролях: Мила Кунис, Кэтрин Хан, Кристен Белл, Кристина Эпплгейт, Джада Пинкетт Смит, Энни Мумоло, Уна Лоуренс, Эмджей Энтони, Дэвид Уолтон, Кларк Дьюк

Описание:
Идеальная мать, прекрасная жена, хорошая домохозяйка с успешной карьерой… Но стоит немного расслабиться, как тебе сразу напоминают о твоих обязанностях. Почему только мужчины имеют право развлекаться? Сколько же можно это терпеть?! Пора команде отчаянных мамочек пуститься во все тяжкие.



Продолжительность: 01:40:57
Качество видео: BDRemux (1080p)
Перевод: Дублированный (iTunes)
Язык субтитров: английские (полные)
Вид субтитров: Вшитые, отключаемые

Видео: 1920x1080, 23.976 fps, MPEG-4 AVC, ~30004 kbps avg
Аудио#1: Russian: 48 kHz, AC3, 3/2 (L,C,R,l,r) + LFE ch, ~384.00 kbps avg |Дубляж, iTunes Russia|
Аудио#2: Ukrainian: 48 kHz, AC3, 3/2 (L,C,R,l,r) + LFE ch, ~384.00 kbps avg |Дубляж, iTunes Russia|
Аудио#3: English: 48 kHz/24-bit, DTS-HD MA 7.1, ~4137.00 kbps avg
Сэмпл Скачать
Общее
Уникальный идентификатор : 176757408164256660376450853732975856271 (0x84FA3D1024C35BFBA6BBECA2470F4A8F)
Полное имя : G:ТоррентыBDMVSTREAMОчень плохие мамочки Bad Moms (2016) 1080p BD-Remux iTunes.mkv
Формат : Matroska
Версия формата : Version 4 / Version 2
Размер файла : 24,4 Гбайт
Продолжительность : 1 ч. 40 м.
Режим общего битрейта : Переменный
Общий поток : 34,6 Мбит/сек
Дата кодирования : UTC 2016-10-26 23:18:10
Программа кодирования : mkvmerge v9.5.0 ('Quiet Fire') 64bit
Библиотека кодирования : libebml v1.3.4 + libmatroska v1.4.5

Видео
Идентификатор : 1
Формат : AVC
Формат/Информация : Advanced Video Codec
Профиль формата : [email protected]
Параметр CABAC формата : Да
Параметр ReFrames формата : 4 кадра
Идентификатор кодека : V_MPEG4/ISO/AVC
Продолжительность : 1 ч. 40 м.
Вид битрейта : Переменный
Битрейт : 29,7 Мбит/сек
Максимальный битрейт : 33,0 Мбит/сек
Ширина : 1920 пикселей
Высота : 1080 пикселей
Соотношение сторон : 16:9
Режим частоты кадров : Постоянный
Частота кадров : 23,976 (24000/1001) кадра/сек
Цветовое пространство : YUV
Субдискретизация насыщенности : 4:2:0
Битовая глубина : 8 бит
Тип развёртки : Прогрессивная
Бит/(Пиксели*Кадры) : 0.597
Размер потока : 20,9 Гбайт (86%)
Default : Да
Forced : Нет

Аудио #1
Идентификатор : 2
Формат : AC-3
Формат/Информация : Audio Coding 3
Расширение режима : CM (complete main)
Параметр Endianness формата : Big
Идентификатор кодека : A_AC3
Продолжительность : 1 ч. 40 м.
Вид битрейта : Постоянный
Битрейт : 384 Кбит/сек
Каналы : 6 каналов
Расположение каналов : Front: L C R, Side: L R, LFE
Частота : 48,0 КГц
Частота кадров : 31,250 кадров/сек (1536 spf)
Метод сжатия : С потерями
Размер потока : 277 Мбайт (1%)
Язык : Russian
Default : Да
Forced : Нет

Аудио #2
Идентификатор : 3
Формат : AC-3
Формат/Информация : Audio Coding 3
Расширение режима : CM (complete main)
Параметр Endianness формата : Big
Идентификатор кодека : A_AC3
Продолжительность : 1 ч. 40 м.
Вид битрейта : Постоянный
Битрейт : 384 Кбит/сек
Каналы : 6 каналов
Расположение каналов : Front: L C R, Side: L R, LFE
Частота : 48,0 КГц
Частота кадров : 31,250 кадров/сек (1536 spf)
Метод сжатия : С потерями
Размер потока : 277 Мбайт (1%)
Язык : Ukrainian
Default : Нет
Forced : Нет

Аудио #3
Идентификатор : 4
Формат : DTS
Формат/Информация : Digital Theater Systems
Профиль формата : MA / Core
Режим : 16
Параметр Endianness формата : Big
Идентификатор кодека : A_DTS
Продолжительность : 1 ч. 40 м.
Вид битрейта : Переменный / Постоянный
Битрейт : 4137 Кбит/сек / 1509 Кбит/сек
Каналы : 8 каналов / 6 каналов
Расположение каналов : Front: L C R, Side: L R, Back: L R, LFE / Front: L C R, Side: L R, LFE
Частота : 48,0 КГц
Частота кадров : 93,750 кадра/сек (512 spf)
Битовая глубина : 24 бит
Метод сжатия : Без потерь / Lossy
Размер потока : 2,92 Гбайт (12%)
Язык : English
Default : Нет
Forced : Нет

Текст
Идентификатор : 5
Формат : PGS
Режим смешивания : zlib
Идентификатор кодека : S_HDMV/PGS
Идентификатор кодека/Информация : Picture based subtitle format used on BDs/HD-DVDs
Продолжительность : 1 ч. 35 м.
Битрейт : 18,9 Кбит/сек
Count of elements : 4146
Размер потока : 12,8 Мбайт (0%)
Язык : English
Default : Да
Forced : Нет
Скриншоты:


Внимание! AdBlock блокирует показ скриншотов, все вопросы к разработчикам )))

Трекер:  [ 27-Окт-2016 08:00 ]

  

Скачать .torrent

Размер .torrent файла 61 KB


Размер: 24.4 GB
Хэш (hash) релиза: d6b235db7a0a95a9b397d00dd9eabc4b1bf165e3
Подписка на обновления:

Торренты, похожие на Очень плохие мамочки Bad Moms скачать торрент

Форум Название Автор Размер S L Добавлен
Зарубежные фильмы 2016-2019 (Новинки зарубежного кино) ·%· Очень плохие мамочки / Bad Moms (2016) BDRip 720p от k.e.n & MegaPeer | Лицензия Galfimbul 46924224984.37 GB 0 0 1546782611

16:50

6-Янв-19

Зарубежные фильмы до 2016 ·%· Очень плохие мамочки / Bad Moms (Джон Лукас, Скотт Мур / Jon Lucas, Scott Moore) [2016, США, Комедия, DVD9] R5 Dub Galfimbul 67722178566.31 GB 0 0 1528903852

18:30

13-Июн-18

Зарубежные фильмы 2016-2019 (Новинки зарубежного кино) ·· Очень плохие мамочки / Bad Moms (Джон Лукас / Jon Lucas, Скотт Мур / Scott Moore) [2016, США, комедия, BDRip] Dub + Original + Sub (Eng Full, Eng SDH) Galfimbul 23450619862.18 GB 0 0 1481972856

14:07

17-Дек-16

Зарубежные фильмы до 2016 ·· Очень плохие мамочки / Bad Moms (Джон Лукас / Jon Lucas, Скотт Мур / Scott Moore) [2016, США, комедия, BDRip 720p] Dub (iTunes) + Sub Eng + Original Eng Galfimbul 49100504444.57 GB 0 0 1478343354

13:55

5-Ноя-16

Зарубежные фильмы 2016-2019 (Новинки зарубежного кино) ·· Очень плохие мамочки / Bad Moms (Джон Лукас / Jon Lucas, Скотт Мур / Scott Moore) [2016, США, комедия, BDRip-AVC] Dub Galfimbul 15689451711.46 GB 0 0 1477677851

21:04

28-Окт-16

Зарубежные фильмы 2016-2019 (Новинки зарубежного кино) ·· Очень плохие мамочки / Bad Moms (Джон Лукас / Jon Lucas, Скотт Мур / Scott Moore) [2016, США, комедия, BDRip-AVC] Dub + Original + Sub (eng) Galfimbul 23288265872.17 GB 0 0 1477677844

21:04

28-Окт-16

Зарубежные фильмы 2016-2019 (Новинки зарубежного кино) ·· Очень плохие мамочки / Bad Moms (Джон Лукас / Jon Lucas, Скотт Мур / Scott Moore) [2016, США, комедия, HDRip] Dub (iTunes) Galfimbul 782352826746 MB 0 0 1477642081

11:08

28-Окт-16

Зарубежные фильмы 2016-2019 (Новинки зарубежного кино) ·· Очень плохие мамочки / Bad Moms (Джон Лукас / Jon Lucas, Скотт Мур / Scott Moore) [2016, США, Комедия, BDRip] Dub (iTunes) Galfimbul 15644672001.46 GB 0 0 1477589316

20:28

27-Окт-16

Зарубежные фильмы 2016-2019 (Новинки зарубежного кино) ·· Очень плохие мамочки / Bad Moms (Джон Лукас, Скотт Мур) [2016, комедия, BDRip 1080p] iTunes Galfimbul 1405271676413.09 GB 0 0 1477545145

08:12

27-Окт-16

Зарубежные фильмы 2016-2019 (Новинки зарубежного кино) ·· Очень плохие мамочки / Bad Moms (Джон Лукас, Скотт Мур) [2016, комедия, BDRip 720p] Звук с CAMRip Galfimbul 42045587873.92 GB 0 0 1476848381

06:39

19-Окт-16

Зарубежные фильмы 2016-2019 (Новинки зарубежного кино) ·· Очень плохие мамочки / Bad Moms (Джон Лукас, Скотт Мур) [2016, комедия, HDRip] Звук с CAMRip Galfimbul 15646863361.46 GB 0 0 1476846932

06:15

19-Окт-16

Зарубежные фильмы 2016-2019 (Новинки зарубежного кино) ·· Очень плохие мамочки / Bad Moms (Джон Лукас, Скотт Мур) [2016, комедия, CAMRip] Galfimbul 14676623361.37 GB 0 0 1472916393

18:26

3-Сен-16

Зарубежные фильмы 2016-2019 (Новинки зарубежного кино) ·· Очень плохие мамочки 2 / A Bad Moms Christmas (Джон Лукас, Скотт Мур) [2017 г., комедия, приключения, BDRip] iTunes Galfimbul 15189833061.41 GB 0 0 1517981424

08:30

7-Фев-18

Зарубежные фильмы 2016-2019 (Новинки зарубежного кино) ·· Очень плохие мамочки 2 / A Bad Moms Christmas (Джон Лукас, Скотт Мур) [2017 г., комедия, приключения, BDRemux 1080p] DUB | iTunes Galfimbul 2750019023425.61 GB 0 0 1517395931

13:52

31-Янв-18

Зарубежные фильмы 2016-2019 (Новинки зарубежного кино) ·· Очень плохие мамочки 2 / A Bad Moms Christmas (Джон Лукас / Jon Lucas, Скотт Мур / Scott Moore) [2017, США, Комедия, приключения, HDRip] Dub (iTunes) Galfimbul 15690567681.46 GB 0 0 1517394638

13:30

31-Янв-18

Зарубежные фильмы 2016-2019 (Новинки зарубежного кино) ·· Очень плохие мамочки 2 / A Bad Moms Christmas (Джон Лукас / Jon Lucas, Скотт Мур / Scott Moore) [2017, США, Китай, комедия, приключения, BDRip] Dub (iTunes) Galfimbul 781774848746 MB 0 0 1517394622

13:30

31-Янв-18

Зарубежные фильмы 2016-2019 (Новинки зарубежного кино) ·· Очень плохие мамочки 2 / A Bad Moms Christmas (Джон Лукас, Скотт Мур) [2017, комедия, приключения, BDRip-AVC] iTunes Galfimbul 14048874251.31 GB 0 0 1517336415

21:20

30-Янв-18

Зарубежные фильмы 2016-2019 (Новинки зарубежного кино) ·· Очень плохие мамочки 2 / A Bad Moms Christmas (Джон Лукас, Скотт Мур) [2017, комедия, приключения, BDRip 1080p] [iTunes] Galfimbul 102197716139.52 GB 0 0 1517306272

12:57

30-Янв-18

Зарубежные фильмы 2016-2019 (Новинки зарубежного кино) ·· Очень плохие мамочки 2 / A Bad Moms Christmas (Джон Лукас, Скотт Мур) [2017, США, Китай, Комедия, приключения, BDRip] iTunes Galfimbul 781683228745 MB 0 0 1517302213

11:50

30-Янв-18

Еще никто не оставлял запись к записи скачать торрент Очень плохие мамочки Bad Moms . Будь первым!

!Обратная связь