Скачать через торрент Имущество с хвостом Who Gets the Dog? Фильм бесплатно в хорошем качестве torrent

Скачивайте на UnionPeer.org фильмы через торрент без регистрации. Новинки кино в хорошем качестве через торрент. На UnionPeer.org можно скачать через торрент фильмы 2014 и 2015 годов. Самые новые фильмы.

Скачать торрент Имущество с хвостом Who Gets the Dog? бесплатно через .torrent фильм мультфильм сериал

Статистика раздачи
Размер:  745 MB   |    Зарегистрирован:  7 лет 3 месяца   |    .torrent скачан:  182 раза   |   
Раздают:  1  
 

Скачать Имущество с хвостом / Who Gets the Dog? (Хак Ботко / Huck Botko) [2016, США, Комедия, HDRip] Dub (iTunes) через torrent

 
 
Автор Сообщение

Galfimbul

avatar Galfimbul


Имущество с хвостом / Who Gets the Dog?
Страна: США
Жанр: Комедия
Год выпуска: 2016
Продолжительность: 01:36:02
Перевод: Профессиональный (дублированный) iTunes
Cубтитры: нет
Режиссер: Хак Ботко / Huck Botko
В ролях: Алисия Сильверстоун, Райан Квантен, Рэндолл Батинкофф, Мишель Суини Абрамс, Рэйчел Серда, Кристин А. Доннелли, Эми Дж. Карле, Сьюзи Брэк, Мэтти Райан, Ламар Кертис
Описание: Олив — успешный врач, Клэй — хоккеист-неудачник. Они влюбились, поженились и завели голден-ретривера. Но она мечтала о нормальной семье, а он — о спортивной карьере… И когда дело движется к разводу, бывшие возлюбленные начинают нешуточную борьбу за драгоценного питомца.

Релиз: MegaPeer
Качество видео: HDRip
Формат видео: AVI

Видео: 688x288 (2.40:1), 23.976 fps, XviD build 73, 951 Kbps
Аудио: 48.0 kHz, MP3, 2 ch, 128 Kbps
General
Complete name : Downloads\Who.Gets.the.Dog.2016.HDRip.745MB.MegaPeer.avi
Format : AVI
Format/Info : Audio Video Interleave
File size : 745 MiB
Duration : 1h 36mn
Overall bit rate : 1 085 Kbps
Video #0
ID : 0
Format : MPEG-4 Visual
Format profile : Advanced Simple@L5
Format settings, BVOP : 1
Format settings, QPel : No
Format settings, GMC : No warppoints
Format settings, Matrix : Custom
Codec ID : XVID
Codec ID/Hint : XviD
Duration : 1h 36mn
Bit rate : 951 Kbps
Width : 688 pixels
Height : 288 pixels
Display aspect ratio : 2.40:1
Frame rate : 23.976 fps
Color space : YUV
Chroma subsampling : 4:2:0
Bit depth : 8 bits
Scan type : Progressive
Compression mode : Lossy
Bits/(Pixel*Frame) : 0.200
Stream size : 653 MiB (88%)
Writing library : XviD 73
Audio #1
ID : 1
Format : MPEG Audio
Format version : Version 1
Format profile : Layer 3
Mode : Joint stereo
Mode extension : MS Stereo
Codec ID : 55
Codec ID/Hint : MP3
Duration : 1h 36mn
Bit rate mode : Constant
Bit rate : 128 Kbps
Channel(s) : 2 channels
Sampling rate : 48.0 KHz
Compression mode : Lossy
Stream size : 87.9 MiB (12%)
Alignment : Aligned on interleaves
Interleave, duration : 167 ms (4.00 video frames)
Interleave, preload duration : 216 ms
Title : iTunes


Внимание! AdBlock блокирует показ скриншотов, все вопросы к разработчикам )))
Трекер:  [ 27-Окт-2016 20:00 ]

  

Скачать .torrent

Размер .torrent файла 15 KB


Размер: 745 MB
Хэш (hash) релиза: 84b86908eae80272e8632059c3285f0a7496c225
Подписка на обновления:

Еще никто не оставлял запись к записи скачать торрент Имущество с хвостом Who Gets the Dog? . Будь первым!

!Обратная связь