Скачать через торрент Гений Genius Фильм бесплатно в хорошем качестве torrent

Скачивайте на UnionPeer.org фильмы через торрент без регистрации. Новинки кино в хорошем качестве через торрент. На UnionPeer.org можно скачать через торрент фильмы 2014 и 2015 годов. Самые новые фильмы.

Скачать торрент Гений Genius бесплатно через .torrent фильм мультфильм сериал

Статистика раздачи
Размер:  7.87 GB   |    Зарегистрирован:  7 лет 3 месяца   |    .torrent скачан:  71 раз   |   
Раздают:  1  
 

Скачать Гений / Genius (Майкл Грандадж / Michael Grandage) [2016, Великобритания, США, драма, биография, BDRip 1080p] Dub + Sub Eng + Original Eng через torrent

 
 
Автор Сообщение

Galfimbul

avatar Galfimbul


Гений / Genius

Страна: Великобритания, США
Студия: Desert Wolf Productions, Michael Grandage Company, Riverstone Pictures
Жанр: Драма, Биография
Год выпуска: 2016
Продолжительность: 01:44:00

Перевод: Профессиональный (дублированный)
Cубтитры: английские *
Оригинальная аудиодорожка: английский

Режиссер: Майкл Грандадж / Michael Grandage

В ролях: Колин Фёрт, Николь Кидман, Лора Линни, Джуд Лоу, Гай Пирс, Доминик Уэст, Ванесса Кирби, Марк Арнольд, Джейн Перри, Кэтерин Кингсли.

Описание: История о непростой дружбе двух очень талантливых людей: писателя Томаса Вулфа и издателя Макса Перкинса, открывшего всему миру таких великих романистов, как Ф. Скотт Фицджеральд и Эрнест Хемингуэй.

Сэмпл: http://multi-up.com/1125137

Тип релиза: BDRip 1080p (batonchik)
Контейнер: MKV

Видео: AVC/H.264, 1920x1080p (16:9), 8945 kbps, 23.976 fps
Аудио 1: DTS, 6 ch, 1509 kbps | Русский
Аудио 2: AC3, 6 ch, 384 kbps | Английский *
Формат субтитров: softsub (SRT)

(*) Дорожка (как и сабы) с английского WEB-DL-а, так как английского Blu-ray Genius нигде не нашёл!
---[Information] [29.10.2016 7:45:43] x264 [info]: frame I:877 Avg QP:15.75 size:170395
---[Information] [29.10.2016 7:45:43] x264 [info]: frame P:37028 Avg QP:18.18 size: 74831
---[Information] [29.10.2016 7:45:43] x264 [info]: frame B:111715 Avg QP:19.72 size: 36305
---[Information] [29.10.2016 7:45:43] x264 [info]: consecutive B-frames: 4.7% 4.8% 7.9% 20.0% 17.6% 32.5% 9.2% 1.4% 0.6% 1.4%

-------------------------------------------------------------------------------------------------------------------------------------------------------------------------------------------
Общее
Полное имя : \Гений_Genius.2016.BDRip.1080p.NNMClub.mkv
Формат : Matroska
Версия формата : Version 2
Размер файла : 8,34 Гбайт
Продолжительность : 1 ч. 44 м.
Общий поток : 11,5 Мбит/сек
Название фильма : Гений_Genius.2016.BDRip.1080p.NNMClub
Дата кодирования : UTC 2016-10-29 05:42:36
Программа кодирования : mkvmerge v7.7.0 ('Six Voices') 64bit built on Feb 28 2015 23:39:33
Библиотека кодирования : libebml v1.3.1 + libmatroska v1.4.2

Видео
Идентификатор : 1
Формат : AVC
Формат/Информация : Advanced Video Codec
Профиль формата : [email protected]
Параметр CABAC формата : Да
Параметр ReFrames формата : 4 кадра
Идентификатор кодека : V_MPEG4/ISO/AVC
Продолжительность : 1 ч. 44 м.
Битрейт : 8945 Кбит/сек
Ширина : 1920 пикселей
Высота : 1080 пикселей
Соотношение сторон : 16:9
Режим частоты кадров : Постоянный
Частота кадров : 23,976 (24000/1001) кадра/сек
Цветовое пространство : YUV
Субдискретизация насыщенности : 4:2:0
Битовая глубина : 8 бит
Тип развёртки : Прогрессивная
Бит/(Пиксели*Кадры) : 0.180
Размер потока : 6,33 Гбайт (76%)
Заголовок : Гений_Genius.2016.BDRip.1080p.NNMClub
Библиотека кодирования : x264 core 146 r2538 121396c
Настройки программы : cabac=1 / ref=4 / deblock=1:-3:-3 / analyse=0x3:0x133 / me=umh / subme=10 / psy=1 / psy_rd=1.00:0.15 / mixed_ref=1 / me_range=32 / chroma_me=1 / trellis=2 / 8x8dct=1 / cqm=0 / deadzone=21,11 / fast_pskip=0 / chroma_qp_offset=-3 / threads=12 / lookahead_threads=2 / sliced_threads=0 / nr=0 / decimate=1 / interlaced=0 / bluray_compat=0 / constrained_intra=0 / bframes=9 / b_pyramid=2 / b_adapt=2 / b_bias=0 / direct=3 / weightb=1 / open_gop=0 / weightp=2 / keyint=250 / keyint_min=23 / scenecut=40 / intra_refresh=0 / rc_lookahead=40 / rc=2pass / mbtree=1 / bitrate=8945 / ratetol=1.0 / qcomp=0.60 / qpmin=0 / qpmax=69 / qpstep=4 / cplxblur=20.0 / qblur=0.5 / vbv_maxrate=50000 / vbv_bufsize=62500 / nal_hrd=none / filler=0 / ip_ratio=1.40 / aq=1:0.80
Язык : English
Default : Да
Forced : Нет

Аудио #1
Идентификатор : 2
Формат : DTS
Формат/Информация : Digital Theater Systems
Режим : 16
Параметр Endianness формата : Big
Идентификатор кодека : A_DTS
Продолжительность : 1 ч. 44 м.
Вид битрейта : Постоянный
Битрейт : 1509 Кбит/сек
Каналы : 6 каналов
Расположение каналов : Front: L C R, Side: L R, LFE
Частота : 48,0 КГц
Частота кадров : 93,750 кадра/сек (512 spf)
Битовая глубина : 24 бит
Метод сжатия : С потерями
Размер потока : 1,10 Гбайт (13%)
Заголовок : Дублированный (Лицензия BD RUS)
Язык : Russian
Default : Да
Forced : Нет

Аудио #2
Идентификатор : 4
Формат : AC-3
Формат/Информация : Audio Coding 3
Расширение режима : CM (complete main)
Параметр Endianness формата : Big
Идентификатор кодека : A_AC3
Продолжительность : 1 ч. 44 м.
Вид битрейта : Постоянный
Битрейт : 384 Кбит/сек
Каналы : 6 каналов
Расположение каналов : Front: L C R, Side: L R, LFE
Частота : 48,0 КГц
Частота кадров : 31,250 кадров/сек (1536 spf)
Метод сжатия : С потерями
Размер потока : 286 Мбайт (3%)
Язык : English
Default : Нет
Forced : Нет

Текст
Идентификатор : 5
Формат : UTF-8
Идентификатор кодека : S_TEXT/UTF8
Идентификатор кодека/Информация : UTF-8 Plain Text
Язык : English
Default : Нет
Forced : Нет

Меню
00:00:00.000 : en:Chapter 01
00:01:33.635 : en:Chapter 02
00:14:04.969 : en:Chapter 03
00:26:40.599 : en:Chapter 04
00:40:13.411 : en:Chapter 05
00:52:36.111 : en:Chapter 06
01:03:02.069 : en:Chapter 07
01:15:28.148 : en:Chapter 08
01:31:41.579 : en:Chapter 09


Внимание! AdBlock блокирует показ скриншотов, все вопросы к разработчикам )))
Трекер:  [ 01-Ноя-2016 06:00 ]

  

Скачать .torrent

Размер .torrent файла 40 KB


Размер: 7.87 GB
Хэш (hash) релиза: e8c530b6bb6f7589b0247e5c20de08bc27492a84
Подписка на обновления:

Торренты, похожие на Гений Genius скачать торрент

Форум Название Автор Размер S L Добавлен
Зарубежные фильмы до 2016 ·· Гений / Genius (Майкл Грандадж / Michael Grandage) [2016, Великобритания, США, Драма, DVD5 (сжатый)] Исх. R5, Dub + Sub Rus + Original Eng Galfimbul 46772633604.36 GB 0 0 1513251367

14:36

14-Дек-17

Зарубежные сериалы ·· Гений / Genius / Сезон: 1 / Серии: 10 из 10 (Джеймс Хоуз, Минки Спиро, Рон Ховард) [2017, США, Драма, биография, история, WEB-DLRip] MVO (National Geographic) Galfimbul 87861557328.18 GB 0 0 1503305549

11:52

21-Авг-17

Зарубежные сериалы ·· Гений / Genius / Сезон: 1 / Серии: 1-7 из 10 (Джеймс Хоуз, Минки Спиро, Рон Ховард) [2017, США, Драма, биография, история., HDTVRip] MVO (Jaskier) + Original Galfimbul 45662924804.25 GB 0 0 1497033876

21:44

9-Июн-17

Зарубежные сериалы ·· Гений / Genius / Сезон: 1 / Серии: 1-7 из 10 (Джеймс Хоуз, Минки Спиро, Рон Ховард) [2017, США, Драма, биография, история., HDTVRip 720p] MVO (Jaskier) + Original Galfimbul 69834554016.5 GB 0 0 1496957186

00:26

9-Июн-17

Зарубежные сериалы ·· Гений / Genius / Сезон: 1 / Серии: 1 из 10 (Джеймс Хоуз, Минки Спиро, Рон Ховард) [2017, США, Драма, биография, история., HDTVRip 720p] MVO (Jaskier) + Original Galfimbul 13428637631.25 GB 0 0 1493215947

17:12

26-Апр-17

Зарубежные сериалы ·· Гений / Genius / Сезон: 1 / Серии: 1 из 10 (Джеймс Хоуз, Минки Спиро, Рон Ховард) [2017, США, драма, биография, история, HDTVRip 720p] Original + Rus Sub (by Outbreak) Galfimbul 11645100061.08 GB 0 0 1493203877

13:51

26-Апр-17

Зарубежные фильмы до 2016 ·· Гений / Genius (Майкл Грандадж / Michael Grandage) [2016, Великобритания, США, драма, биография, BDRemux 1080p] Dub (BD RUS) + Ukr + Original (Eng) + Sub (Eng, Rus) Galfimbul 3031936682028.24 GB 0 0 1493031748

14:02

24-Апр-17

Зарубежные фильмы до 2016 ·· Гений / Genius (Майкл Грандадж / Michael Grandage) [2016, Великобритания, США, драма, биография, Blu-ray disc 1080p] [RUS] Dub Galfimbul 2010874228718.73 GB 0 0 1477697881

02:38

29-Окт-16

Зарубежные фильмы 2016-2019 (Новинки зарубежного кино) ·· Гений / Genius (Майкл Грандадж / Michael Grandage) [2016, Великобритания, США, драма, биография, BDRip] Dub Galfimbul 15725486081.46 GB 0 0 1477672692

19:38

28-Окт-16

Зарубежные фильмы 2016-2019 (Новинки зарубежного кино) ·· Гений / Genius (Майкл Грандадж) [2016, драма, биография, WEB-DL 720p] iTunes Galfimbul 35245812473.28 GB 0 0 1476614263

13:37

16-Окт-16

Зарубежные фильмы 2016-2019 (Новинки зарубежного кино) ·· Гений / Genius (Майкл Грандадж / Michael Grandage) [2016, Великобритания, США, драма, биография, WEB-DLRip] Dub Galfimbul 15534653441.45 GB 0 0 1476477672

23:41

14-Окт-16

Зарубежные фильмы 2016-2019 (Новинки зарубежного кино) ·· Гений / Genius (Майкл Грандадж / Michael Grandage) [2016, Великобритания, США, драма, биография, WEB-DLRip] Dub (iTunes) Galfimbul 781677712745 MB 0 0 1476477650

23:40

14-Окт-16

Зарубежные фильмы 2016-2019 (Новинки зарубежного кино) ·· Гений / Genius (Майкл Грандадж) [2016, драма, биография, WEB-DLRip] iTunes Galfimbul 14391255041.34 GB 0 0 1476425500

09:11

14-Окт-16

Зарубежные фильмы 2016-2019 (Новинки зарубежного кино) ·· Гений / Genius (Майкл Грандадж) [2016, драма, биография, WEB-DLRip 1080р] iTunes Galfimbul 40701733943.79 GB 0 0 1476421909

08:11

14-Окт-16

Зарубежные фильмы 2016-2019 (Новинки зарубежного кино) ·· Гений / Genius (Майкл Грандадж) [2016, драма, биография, WEB-DLRip 1080р] Line Galfimbul 36064726273.36 GB 0 0 1475494910

14:41

3-Окт-16

Зарубежные фильмы 2016-2019 (Новинки зарубежного кино) ·· Гений / Genius (Майкл Грандадж) [2016, драма, биография, WEB-DLRip] Line Galfimbul 14687969281.37 GB 0 0 1475494895

14:41

3-Окт-16

Зарубежные фильмы 2016-2019 (Новинки зарубежного кино) ·· Гений / Genius (Майкл Грандадж) [2016, драма, биография, WEB-DLRip] Звук TS Galfimbul 14693007361.37 GB 0 0 1472008158

06:09

24-Авг-16

Зарубежные фильмы до 2016 ·· Гений / Genius (Род Дэниэл / Rod Daniel) [1999, США, комедия, семейный, SATRip] DUB Galfimbul 781570900745 MB 0 0 1365321085

10:51

7-Апр-13

Мультсериалы ·· Приключения Джимми Нейтрона, мальчика-гения / The Adventures of Jimmy Neutron: Boy Genius (Сезоны 1-3) + Джимми Нейтрон: мальчик гений / Jimmy Neutron Boy Genius (Джон Э. Дэвис) [2001 г., мультфильм, SATRip] (DUB) sebladec 1409745715213.13 GB 0 0 1293320546

02:42

26-Дек-10

Еще никто не оставлял запись к записи скачать торрент Гений Genius . Будь первым!

!Обратная связь