Vigilante Diaries torrent

UnionPeer.org . . UnionPeer.org 2014 2015 . .

Vigilante Diaries .torrent

5.64 GB   |    :  7 3    |    .torrent :  35    |   
1  
   
 

Galfimbul

avatar Galfimbul


<span class="post-font-sans3"> . .</span>
<span class="post-font-sans3"> / Vigilante Diaries</span>

<span class="post-font-sans3"> : 2016
:
: CineTel Films
:
: 01:47:43
:</span>

<span class="post-font-sans3"> () iTunes / </span>
<span class="post-font-sans3"> </span>

<span class="post-font-sans3">C:
: </span>
<span class="post-font-sans3">: / Christian Sesma</span>
<span class="post-font-sans3"> : , , , . , , , , , , . .</span>
<span class="post-font-sans3"> : , , , , , , , , .</span>
<span class="post-font-sans3">: , , , , , .</span>
<span class="post-font-mono1"> : <span class="post-font-sans1">V.<span class="post-font-mono1">SERIJ<span class="post-font-sans1">2013</span></span></span></span>
<span class="post-font-sans3">: BDRip 720p
: MKV
: H.264
: AC3
: H.264, 1280x534 (2.40:1), 23.976 fps, ~6135 kbps, 0.374 bit/pixel
:</span>

<span class="post-font-sans3"> |iTunes|: AC3, 48 kHz, 6 ch, 384 kbps</span>
<span class="post-font-sans3"> | |: AC3, 48 kHz, 2 ch, 192 kbps</span>
<span class="post-font-sans3"> ||: AC3, 48 kHz, 6 ch, 640 kbps</span>
<span class="post-font-sans3"> \ <span class="post-font-sans3"></span></span>

x264 [info]: frame I:1346 Avg QP:13.57 size:112729
x264 [info]: frame P:37748 Avg QP:15.08 size: 54874
x264 [info]: frame B:115851 Avg QP:17.53 size: 24602
x264 [info]: consecutive B-frames: 3.0% 5.5% 11.0% 23.7% 20.7% 27.5% 5.3% 1.5% 1.7%

General
Unique ID : 203244556028094407981909737388505634589 (0x98E77A47316B492CBA5353409959171D)
Complete name : E:\Video\HD\Movies (HD)\Vigilante Diaries (2016) (BDRip 720p).mkv
Format : Matroska
Format version : Version 4 / Version 2
File size : 5.64 GiB
Duration : 1h 47mn
Overall bit rate : 7 500 Kbps
Encoded date : UTC 2016-11-01 06:21:22
Writing application : mkvmerge v8.8.0 ('Wind at my back') 32bit
Writing library : libebml v1.3.3 + libmatroska v1.4.4
DURATION : 01:47:42.464000000
NUMBER_OF_FRAMES : 201952
NUMBER_OF_BYTES : 516997120
_STATISTICS_WRITING_APP : mkvmerge v8.8.0 ('Wind at my back') 32bit
_STATISTICS_WRITING_DATE_UTC : 2016-11-01 06:21:22
_STATISTICS_TAGS : BPS DURATION NUMBER_OF_FRAMES NUMBER_OF_BYTES

Video
ID : 1
Format : AVC
Format/Info : Advanced Video Codec
Format profile : [email protected]
Format settings, CABAC : Yes
Format settings, ReFrames : 12 frames
Codec ID : V_MPEG4/ISO/AVC
Duration : 1h 47mn
Bit rate : 6 135 Kbps
Width : 1 280 pixels
Height : 534 pixels
Display aspect ratio : 2.40:1
Frame rate mode : Constant
Frame rate : 23.976 fps
Color space : YUV
Chroma subsampling : 4:2:0
Bit depth : 8 bits
Scan type : Progressive
Bits/(Pixel*Frame) : 0.374
Stream size : 4.62 GiB (82%)
Writing library : x264 core 148 r2721 72d53ab
Encoding settings : cabac=1 / ref=12 / deblock=1:-3:-3 / analyse=0x3:0x133 / me=umh / subme=11 / psy=1 / psy_rd=1.05:0.00 / mixed_ref=1 / me_range=32 / chroma_me=1 / trellis=2 / 8x8dct=1 / cqm=0 / deadzone=21,11 / fast_pskip=0 / chroma_qp_offset=-2 / threads=12 / lookahead_threads=2 / sliced_threads=0 / nr=0 / decimate=1 / interlaced=0 / bluray_compat=0 / constrained_intra=0 / bframes=8 / b_pyramid=2 / b_adapt=2 / b_bias=0 / direct=3 / weightb=1 / open_gop=0 / weightp=2 / keyint=250 / keyint_min=23 / scenecut=40 / intra_refresh=0 / rc_lookahead=70 / rc=crf / mbtree=0 / crf=16.0 / qcomp=0.70 / qpmin=0 / qpmax=69 / qpstep=4 / vbv_maxrate=62500 / vbv_bufsize=78125 / crf_max=0.0 / nal_hrd=none / filler=0 / ip_ratio=1.40 / pb_ratio=1.30 / aq=2:0.90
Language : English
Default : Yes
Forced : No
Color primaries : BT.709
Transfer characteristics : BT.709
Matrix coefficients : BT.709
Color range : Limited

Audio #1
ID : 2
Format : AC-3
Format/Info : Audio Coding 3
Mode extension : CM (complete main)
Format settings, Endianness : Big
Codec ID : A_AC3
Duration : 1h 47mn
Bit rate mode : Constant
Bit rate : 384 Kbps
Channel(s) : 6 channels
Channel positions : Front: L C R, Side: L R, LFE
Sampling rate : 48.0 KHz
Bit depth : 16 bits
Compression mode : Lossy
Stream size : 296 MiB (5%)
Title : DUB (iTunes / )
Language : Russian
Default : Yes
Forced : No

Audio #2
ID : 3
Format : AC-3
Format/Info : Audio Coding 3
Mode extension : CM (complete main)
Format settings, Endianness : Big
Codec ID : A_AC3
Duration : 1h 47mn
Bit rate mode : Constant
Bit rate : 192 Kbps
Channel(s) : 2 channels
Channel positions : Front: L R
Sampling rate : 48.0 KHz
Bit depth : 16 bits
Compression mode : Lossy
Stream size : 148 MiB (3%)
Title : VO ( )
Language : Russian
Default : No
Forced : No

Audio #3
ID : 4
Format : AC-3
Format/Info : Audio Coding 3
Mode extension : CM (complete main)
Format settings, Endianness : Big
Codec ID : A_AC3
Duration : 1h 47mn
Bit rate mode : Constant
Bit rate : 640 Kbps
Channel(s) : 6 channels
Channel positions : Front: L C R, Side: L R, LFE
Sampling rate : 48.0 KHz
Bit depth : 16 bits
Compression mode : Lossy
Stream size : 493 MiB (9%)
Title : Original
Language : English
Default : No
Forced : No

Text
ID : 5
Format : UTF-8
Codec ID : S_TEXT/UTF8
Codec ID/Info : UTF-8 Plain Text
Title : SDH
Language : English
Default : No
Forced : No

Menu
00:00:00.000 : en:Chapter 1
00:06:45.612 : en:Chapter 2
00:13:31.143 : en:Chapter 3
00:25:52.259 : en:Chapter 4
00:36:45.411 : en:Chapter 5
00:47:00.650 : en:Chapter 6
00:52:48.373 : en:Chapter 7
00:59:03.248 : en:Chapter 8
01:05:51.280 : en:Chapter 9
01:23:02.143 : en:Chapter 10
01:37:22.336 : en:Chapter 11
01:41:55.274 : en:Chapter 12



! AdBlock , )))
 ·  , , FAQ-
:  [ 05--2016 13:00 ]

  

.torrent

.torrent 14 KB


: 5.64 GB
(hash) : 8f5a4da820e69aa10e03a4d6814ddd1f35358500
:
··
...

, Vigilante Diaries

S L
2016-2019 ( ) ··  / Vigilante Diaries ( / Christian Sesma) [2016, , , BDRip] Dub Galfimbul 15695708161.46 GB 0 0 1477971318

06:35

1--16

2016-2019 ( ) ··  / Vigilante Diaries ( / Christian Sesma) [2016, , , HDRip] Dub (iTunes) Galfimbul 782625036746 MB 0 0 1477971312

06:35

1--16

2016-2019 ( ) ··  / Vigilante Diaries ( ) [2016, , BDRip] iTunes Galfimbul 22122227802.06 GB 0 0 1477856507

22:41

30--16

2016-2019 ( ) ··  / Vigilante Diaries ( ) [2016, , HDRip] iTunes Galfimbul 14678589441.37 GB 0 0 1477782688

02:11

30--16

2016-2019 ( ) ··  / Vigilante Diaries ( / Christian Sesma) [2016, , , HDRip] VO ( ) + Original Eng Galfimbul 15607132161.45 GB 0 0 1467351613

08:40

1--16

2016-2019 ( ) ··  / Vigilante Diaries ( ) [2016, , HDRip] Galfimbul 15607132161.45 GB 0 0 1467148483

00:14

29--16

Vigilante Diaries . !

!