Ghostbusters torrent

UnionPeer.org . . UnionPeer.org 2014 2015 . .

Ghostbusters .torrent

12.78 GB   |    :  7 3    |    .torrent :  89    |   
1  
   
 

Galfimbul

avatar Galfimbul


<span class="post-font-sans3"> ?</span>
<span class="post-font-sans3"> / Ghostbusters / / Theatrical Cut</span>

<span class="post-font-sans3"> : 2016
: ,
: Columbia Pictures
: , , ,
: 01:56:35
: () Blu-ray CEE / WDSSPR
C: , ,
: </span>
<span class="post-font-sans3">: / Paul Feig</span>
<span class="post-font-sans3"> : , , , , , , , , , .</span>
<span class="post-font-sans3"> : , , , , , , , , , , , , , , , , , , , , , .</span>
<span class="post-font-sans3">: - , . , , . , , , , , , . , ...</span>
<span class="post-font-sans3">: BDRip 1080p
: MKV
: H.264
: AC3, DTS
: H.264, 1920x804 (2.40:1), 23.976 fps, ~12.7 Mbps, 0.344 bit/pixel
:</span>

<span class="post-font-sans3"> |Blu-ray CEE|: AC3, 48 kHz, 6 ch, 384 kbps</span>
<span class="post-font-sans3"> |Blu-ray CEE|: AC3, 48 kHz, 6 ch, 384 kbps</span>
<span class="post-font-sans3"> ||: DTS, 48 kHz, 6 ch, 1509 kbps</span>
<span class="post-font-sans3"> | |: AC3, 48 kHz, 2 ch, 192 kbps</span>
<span class="post-font-sans3"> | , , , |: AC3, 48 kHz, 2 ch, 192 kbps</span>
<span class="post-font-sans3"> \ <span class="post-font-sans3"></span></span>
General
Unique ID : 193552992511647167398275678506083387564 (0x919CF34E1877E1E988A0DA037A2788AC)
Complete name : E:\Video\HD\Movies (HD)\Ghostbusters (2016) (BDRip 1080p l Theatrical Cut).mkv
Format : Matroska
Format version : Version 4 / Version 2
File size : 12.8 GiB
Duration : 1h 56mn
Overall bit rate : 15.7 Mbps
Encoded date : UTC 2016-10-31 08:54:56
Writing application : mkvmerge v8.8.0 ('Wind at my back') 32bit
Writing library : libebml v1.3.3 + libmatroska v1.4.4
DURATION : 01:55:15.590000000
NUMBER_OF_FRAMES : 2010
NUMBER_OF_BYTES : 69550
_STATISTICS_WRITING_APP : mkvmerge v8.8.0 ('Wind at my back') 32bit
_STATISTICS_WRITING_DATE_UTC : 2016-10-31 08:54:56
_STATISTICS_TAGS : BPS DURATION NUMBER_OF_FRAMES NUMBER_OF_BYTES

Video
ID : 1
Format : AVC
Format/Info : Advanced Video Codec
Format profile : [email protected]
Format settings, CABAC : Yes
Format settings, ReFrames : 5 frames
Codec ID : V_MPEG4/ISO/AVC
Duration : 1h 56mn
Bit rate : 12.7 Mbps
Width : 1 920 pixels
Height : 804 pixels
Display aspect ratio : 2.40:1
Frame rate mode : Constant
Frame rate : 23.976 fps
Color space : YUV
Chroma subsampling : 4:2:0
Bit depth : 8 bits
Scan type : Progressive
Bits/(Pixel*Frame) : 0.344
Stream size : 10.4 GiB (81%)
Title : / Theatrical Cut
Writing library : x264 core 148 r2705kMod 3f5ed56
Encoding settings : cabac=1 / ref=5 / deblock=1:-3:-3 / analyse=0x3:0x133 / me=umh / subme=10 / psy=1 / fade_compensate=0.00 / psy_rd=1.00:0.00 / mixed_ref=1 / me_range=24 / chroma_me=1 / trellis=2 / 8x8dct=1 / cqm=0 / deadzone=21,11 / fast_pskip=0 / chroma_qp_offset=-2 / threads=56 / lookahead_threads=6 / sliced_threads=0 / nr=0 / decimate=0 / interlaced=0 / bluray_compat=0 / constrained_intra=0 / fgo=0 / bframes=8 / b_pyramid=2 / b_adapt=2 / b_bias=0 / direct=3 / weightb=1 / open_gop=0 / weightp=2 / keyint=250 / keyint_min=23 / scenecut=40 / intra_refresh=0 / rc_lookahead=60 / rc=crf / mbtree=0 / crf=17.0000 / qcomp=0.65 / qpmin=0 / qpmax=69 / qpstep=4 / vbv_maxrate=62500 / vbv_bufsize=78125 / crf_max=0.0 / nal_hrd=none / filler=0 / ip_ratio=1.30 / pb_ratio=1.20 / aq=3:0.75
Language : English
Default : Yes
Forced : No
Matrix coefficients : BT.709
Color range : Limited
DURATION : 01:56:34.988000000
NUMBER_OF_FRAMES : 167712
NUMBER_OF_BYTES : 11384826180
_STATISTICS_WRITING_APP : mkvmerge v8.8.0 ('Wind at my back') 32bit
_STATISTICS_WRITING_DATE_UTC : 2016-10-31 08:54:56
_STATISTICS_TAGS : BPS DURATION NUMBER_OF_FRAMES NUMBER_OF_BYTES

Audio #1
ID : 2
Format : AC-3
Format/Info : Audio Coding 3
Mode extension : CM (complete main)
Format settings, Endianness : Big
Codec ID : A_AC3
Duration : 1h 56mn
Bit rate mode : Constant
Bit rate : 384 Kbps
Channel(s) : 6 channels
Channel positions : Front: L C R, Side: L R, LFE
Sampling rate : 48.0 KHz
Bit depth : 16 bits
Compression mode : Lossy
Stream size : 320 MiB (2%)
Title : DUB (Blu-ray CEE / WDSSPR)
Language : Russian
Default : Yes
Forced : No

Audio #2
ID : 3
Format : AC-3
Format/Info : Audio Coding 3
Mode extension : CM (complete main)
Format settings, Endianness : Big
Codec ID : A_AC3
Duration : 1h 56mn
Bit rate mode : Constant
Bit rate : 384 Kbps
Channel(s) : 6 channels
Channel positions : Front: L C R, Side: L R, LFE
Sampling rate : 48.0 KHz
Bit depth : 16 bits
Compression mode : Lossy
Stream size : 320 MiB (2%)
Title : DUB (Blu-ray CEE / WDSSPR)
Language : Ukrainian
Default : No
Forced : No

Audio #3
ID : 4
Format : DTS
Format/Info : Digital Theater Systems
Mode : 16
Format settings, Endianness : Big
Codec ID : A_DTS
Duration : 1h 56mn
Bit rate mode : Constant
Bit rate : 1 509 Kbps
Channel(s) : 6 channels
Channel positions : Front: L C R, Side: L R, LFE
Sampling rate : 48.0 KHz
Bit depth : 24 bits
Compression mode : Lossy
Delay relative to video : 11ms
Stream size : 1.23 GiB (10%)
Title : Original
Language : English
Default : No
Forced : No

Audio #4
ID : 5
Format : AC-3
Format/Info : Audio Coding 3
Format profile : Dolby Digital
Mode extension : CM (complete main)
Format settings, Endianness : Big
Codec ID : A_AC3
Duration : 1h 56mn
Bit rate mode : Constant
Bit rate : 192 Kbps
Channel(s) : 2 channels
Channel positions : Front: L R
Sampling rate : 48.0 KHz
Bit depth : 16 bits
Compression mode : Lossy
Stream size : 160 MiB (1%)
Title : Audio Commentary with Writer/Director Paul Feig and Writer Katie Dippold
Language : English
Default : No
Forced : No

Audio #5
ID : 6
Format : AC-3
Format/Info : Audio Coding 3
Format profile : Dolby Digital
Mode extension : CM (complete main)
Format settings, Endianness : Big
Codec ID : A_AC3
Duration : 1h 56mn
Bit rate mode : Constant
Bit rate : 192 Kbps
Channel(s) : 2 channels
Channel positions : Front: L R
Sampling rate : 48.0 KHz
Bit depth : 16 bits
Compression mode : Lossy
Stream size : 160 MiB (1%)
Title : Audio Commentary with Editor Brent White, Producer Jessie Henderson, Production Designer Jeff Sage, Visual Effects Supervisor Pete Travers, and Special Effects Supervisor Mark Hawker
Language : English
Default : No
Forced : No

Text #1
ID : 7
Format : UTF-8
Codec ID : S_TEXT/UTF8
Codec ID/Info : UTF-8 Plain Text
Title : Forced (Blu-ray CEE)
Language : Russian
Default : Yes
Forced : No

Text #2
ID : 8
Format : UTF-8
Codec ID : S_TEXT/UTF8
Codec ID/Info : UTF-8 Plain Text
Title : Full (Blu-ray CEE)
Language : Russian
Default : No
Forced : No

Text #3
ID : 9
Format : UTF-8
Codec ID : S_TEXT/UTF8
Codec ID/Info : UTF-8 Plain Text
Title : Full (Blu-ray CEE)
Language : Ukrainian
Default : No
Forced : No

Text #4
ID : 10
Format : UTF-8
Codec ID : S_TEXT/UTF8
Codec ID/Info : UTF-8 Plain Text
Title : Full
Language : English
Default : No
Forced : No

Menu
00:00:00.000 : en:00:00:00.000
00:08:24.295 : en:00:08:24.295
00:15:21.754 : en:00:15:21.754
00:19:59.240 : en:00:19:59.240
00:25:27.901 : en:00:25:27.901
00:33:55.950 : en:00:33:55.950
00:39:04.133 : en:00:39:04.133
00:45:24.305 : en:00:45:24.305
00:51:51.108 : en:00:51:51.108
00:56:33.348 : en:00:56:33.348
01:01:52.417 : en:01:01:52.417
01:07:04.103 : en:01:07:04.103
01:15:43.288 : en:01:15:43.288
01:23:30.338 : en:01:23:30.338
01:32:41.639 : en:01:32:41.639
01:42:49.580 : en:01:42:49.580



! AdBlock , )))
 ·  , , FAQ-
:  [ 05--2016 13:00 ]

  

.torrent

.torrent 32 KB


: 12.78 GB
(hash) : 10e73b6ea45f9e59b308244dd5b5241faeb117e6
:
··
...

, Ghostbusters

S L
2016-2019 ( ) ··  / Ghostbusters (2016) WEB-DLRip 720p SuperMin | D | Open Matte | Theatrical Cut Galfimbul 45742884054.26 GB 0 0 1589688011

07:00

17--20

2016-2019 ( ) ··  / Ghostbusters (2016) WEB-DLRip-AVC | D | Open Matte | Theatrical Cut Galfimbul 27043705682.52 GB 0 0 1589634642

16:10

16--20

2016-2019 ( ) ·%·  / Ghostbusters (2016) WEB-DL 1080p | D | Open Matte | Theatrical Cut Galfimbul 95812309108.92 GB 0 0 1589534437

12:20

15--20

2016 ··  / Ghostbusters ( /Ivan Reitman) [1984, , , DVD9] , , , Galfimbul 79548497927.41 GB 0 0 1502453188

15:06

11--17

2016 ··  / Ghostbusters ( / Paul Feig) [2016, , , , , , , DVD9] R2 Dub + Sub Rus + Original Eng Galfimbul 80960942087.54 GB 0 0 1500575775

21:36

20--17

2016 ··  / Ghostbusters ( / Paul Feig) [2016, , , , , , , BDRip 720p] [ ] Dub (Blu-ray CEE) + Sub Rus, Eng + Original Eng Galfimbul 79330120557.39 GB 0 0 1478237748

08:35

4--16

2016-2019 ( ) ··  / Ghostbusters ( / Paul Feig) [2016, , , , , BDRip-AVC] Dub + Original + Sub (rus, eng) Galfimbul 23537447232.19 GB 0 0 1478034437

00:07

2--16

2016 ··  / Ghostbusters ( / Paul Feig) [2016, , , , , , Blu-ray disc 1080p] [2-in-1: Theatrical & Extended Cut] Dub (BD CEE) + Dub (Ukr) + Sub (Rus, Eng) + Original (Eng) Galfimbul 4917845103745.8 GB 0 0 1478025499

21:38

1--16

2016-2019 ( ) ··  / Ghostbusters ( / Paul Feig) [2016, , , , , , , BDRip] Dub (iTunes) Galfimbul 15719116801.46 GB 0 0 1476165765

09:02

11--16

2016-2019 ( ) ··  / Ghostbusters ( / Paul Feig) [2016, , , , , HDRip] iTunes Galfimbul 14702161921.37 GB 0 0 1474954894

08:41

27--16

2016-2019 ( ) ··  / Ghostbusters ( / Paul Feig) [2016, , , , , BDRip 1080p] iTunes Galfimbul 1262636966011.76 GB 0 0 1474954890

08:41

27--16

2016-2019 ( ) ··  / Ghostbusters ( / Paul Feig) [2016, , , , , WEB-DLRip] Dub + Original + Sub (rus, eng) Galfimbul 22895272212.13 GB 0 0 1474576296

23:31

22--16

2016-2019 ( ) ··  / Ghostbusters ( / Paul Feig) [2016, , , , , WEB-DLRip-AVC] Dub + Original + Sub (rus, eng) Galfimbul 23318703432.17 GB 0 0 1474538143

12:55

22--16

2016-2019 ( ) ··  / Ghostbusters ( / Paul Feig) [2016, , , , , , , WEB-DLRip] Dub Galfimbul 781721600746 MB 0 0 1474536441

12:27

22--16

2016-2019 ( ) ··  / Ghostbusters ( ) [2016, , , , WEB-DLRip] iTunes Galfimbul 22042956452.05 GB 0 0 1474535549

12:12

22--16

2016-2019 ( ) ··  / Ghostbusters ( ) [2016, , , , WEB-DLRip] iTunes Galfimbul 15682703361.46 GB 0 0 1474528578

10:16

22--16

2016-2019 ( ) ··  / Ghostbusters ( ) [2016, , , , WEB-DL 1080p] iTunes Galfimbul 47026549954.38 GB 0 0 1474506529

04:08

22--16

2016-2019 ( ) ··  / Ghostbusters ( ) [2016, , , , WEB-DLRip] iTunes Galfimbul 14702919681.37 GB 0 0 1474503300

03:15

22--16

2016-2019 ( ) ··  / Ghostbusters ( ) [2016, , , , CAMRip] Galfimbul 16075735041.5 GB 0 0 1469701493

13:24

28--16

Ghostbusters . !

!