Скачать через торрент Робоцып Robot Chicken Фильм бесплатно в хорошем качестве torrent

Скачивайте на UnionPeer.org фильмы через торрент без регистрации. Новинки кино в хорошем качестве через торрент. На UnionPeer.org можно скачать через торрент фильмы 2014 и 2015 годов. Самые новые фильмы.

Скачать торрент Робоцып Robot Chicken бесплатно через .torrent фильм мультфильм сериал

Статистика раздачи
Размер:  8.65 GB   |    Зарегистрирован:  3 года   |    .torrent скачан:  43 раза   |   
Раздают:  1  
   
загрузка...
 
Автор Сообщение

Galfimbul

avatar Galfimbul


<span class="post-font-serif1">Робоцып / Robot Chicken</span>
<span class="post-font-serif1">Страна: США
Студия: Sony Pictures, Williams Street
Жанр: Сатира, Пародия, Чёрный Юмор
Продолжительность серии: ~ 11 мин
Год выпуска: 2014
Перевод 1: Профессиональный (многоголосый закадровый) |Jaskier|
Перевод 2: Студийный (одноголосый закадровый) Сергей Набиев |2x2| (1-20 серии)
Русские субтитры: citzes

Режиссёр: Сет Грин, Мэтью Синрайк / Seth Green, Matthew Senreich
Роли озвучивали: Seth Green, Matthew Senreich, Jordan Allen-Dutton, Candace Bailey, Abraham Benrubi, Alex Borstein...
Jaskier: Денис Строев, Сергей Пономарёв, Вячеслав Козлов, Михаил Кшиштовский и Рина Гришина
Описание: "Робоцып" - калейдоскоп коротких скетчей, полных чёрного юмора и сатиры. Практически каждая сценка пародирует кино, телешоу, компьютерные игры, героев мультфильмов и комиксов, актёров, политиков, певцов и других знаменитостей, а также продукты питания, рекламные ролики или прочие проявления массовой культуры. Все серии объединены общим сюжетом, по которому некий Робоцып оживил безумного учёного, привязал его к креслу и заставил смотреть несколько телевизоров сразу. Причём, смены скетчей выполнены в виде переключения каналов.
Релиз группы:
00 Born Again Virgin Christmas Special
01 G.I. Jogurt
02 Link's Sausages
03 Secret of the Booze
04 Rebel Appliance
05 Legion of Super-Gyros
06 El Skeletorito
07 Snarfer Image
08 Up, Up, and Buffet
09 Panthropologie
10 Catdog on a Stick
11 Super Guitario Center
12 Noidstrom Rack
13 Stone Cold Steve Cold Stone
14 Walking Dead Lobster
15 Victoria's Secret of NIMH
16 Bitch Pudding Special
17 Batman Forever 21
18 The Hobbit: There and Bennigan's
19 Chipotle Miserables
20 The Robot Chicken Lots of Holidays Christmas Special
Доп. информация:
Огромное Спасибо <a href="profile.php?mode=viewprofile&u=4566614" class="postLink">#Antisnl#</a> за предоставление записей телеканала [2x2]
Для Робоцыпа 29.970fps это норма. Все стоп-моушен сцены сняты в 15fps, а все эффекты (огонь, кровь) - в 30fps.
Качество: WEB-DL 1080p
Формат: MKV
Видео: MPEG-4 AVC, 1440x1080 (16:9), 29.970 fps, ~ 5000 kbps
Аудио 1: Русский, AC3 Dolby Digital, 2 ch, 192 kbps, 48 kHz |Jaskier|
Аудио 2: Русский, AC3 Dolby Digital, 2 ch, 192 kbps, 48 kHz |2x2|
Аудио 3: Английский, AC3 Dolby Digital, 6 ch, 384 kbps, 48 kHz
Субтитры: Русские (15, 17, 18 серии), Английские | SubRip

Сэмпл
<a href="viewtopic.php?t=5273836" class="postLink">Season 7 WEB-DL 720p</a>
<a href="viewtopic.php?t=4664765" class="postLink">Season 6 BDRip 1080p</a> | <a href="viewtopic.php?t=4664732" class="postLink">720p</a>
<a href="viewtopic.php?t=4784735" class="postLink">Season 5 BDRip 1080p</a> | <a href="viewtopic.php?t=4658688" class="postLink">720p</a>
<a href="tracker.php?f=921&nm=Robot+Chicken" class="postLink">Все раздачи мультсериала</a>
</span>
<span class="post-font-serif1">
Общее
Уникальный идентификатор : 232942975740216849925267198885948287538 (0xAF3F2F6B511DA3A1A30D9957F647EA32)
Полное имя : C:\Раздачи\Robot.Chicken.S07.2014.H264.WEB-DL.1080p-SergeZuich\01 G.I. Jogurt.mkv
Формат : Matroska
Версия формата : Version 4 / Version 2
Размер файла : 425 Мбайт
Продолжительность : 10 м. 48 с.
Общий поток : 5494 Кбит/сек
Название фильма : Robot Chicken - G.I. Jogurt (S07E01)
Дата кодирования : UTC 2016-11-11 09:49:35
Программа кодирования : mkvmerge v8.3.0 ('Over the Horizon') 64bit
Библиотека кодирования : libebml v1.3.1 + libmatroska v1.4.2

Видео
Идентификатор : 1
Формат : AVC
Формат/Информация : Advanced Video Codec
Профиль формата : High@L4
Параметр CABAC формата : Да
Параметр ReFrames формата : 5 кадров
Идентификатор кодека : V_MPEG4/ISO/AVC
Продолжительность : 10 м. 48 с.
Битрейт : 4723 Кбит/сек
Ширина : 1440 пикселей
Высота : 1080 пикселей
Соотношение сторон : 16:9
Режим частоты кадров : Постоянный
Частота кадров : 29,970 (29970/1000) кадров/сек
Цветовое пространство : YUV
Субдискретизация насыщенности : 4:2:0
Битовая глубина : 8 бит
Тип развёртки : Прогрессивная
Бит/(Пиксели*Кадры) : 0.101
Размер потока : 365 Мбайт (86%)
Заголовок : G.I. Jogurt
Default : Да
Forced : Нет
Цветовой диапазон : Limited
Основные цвета : BT.709
Характеристики трансфера : BT.709
Коэффициенты матрицы : BT.709

Аудио #1
Идентификатор : 2
Формат : AC-3
Формат/Информация : Audio Coding 3
Расширение режима : CM (complete main)
Параметр Endianness формата : Big
Идентификатор кодека : A_AC3
Продолжительность : 10 м. 48 с.
Вид битрейта : Постоянный
Битрейт : 192 Кбит/сек
Каналы : 2 канала
Расположение каналов : Front: L R
Частота : 48,0 КГц
Частота кадров : 31,250 кадров/сек (1536 spf)
Метод сжатия : С потерями
Размер потока : 14,9 Мбайт (3%)
Заголовок : MVO [Jaskier] - AC3 Dolby Digital, 2ch, 192 kbps, 48 kHz
Язык : Russian
Default : Да
Forced : Нет

Аудио #2
Идентификатор : 3
Формат : AC-3
Формат/Информация : Audio Coding 3
Расширение режима : CM (complete main)
Параметр Endianness формата : Big
Идентификатор кодека : A_AC3
Продолжительность : 10 м. 48 с.
Вид битрейта : Постоянный
Битрейт : 192 Кбит/сек
Каналы : 2 канала
Расположение каналов : Front: L R
Частота : 48,0 КГц
Частота кадров : 31,250 кадров/сек (1536 spf)
Метод сжатия : С потерями
Размер потока : 14,9 Мбайт (3%)
Заголовок : VO [2x2] - AC3 Dolby Digital, 2ch, 192 kbps, 48 kHz
Язык : Russian
Default : Нет
Forced : Нет

Аудио #3
Идентификатор : 4
Формат : AC-3
Формат/Информация : Audio Coding 3
Расширение режима : CM (complete main)
Параметр Endianness формата : Big
Идентификатор кодека : A_AC3
Продолжительность : 10 м. 48 с.
Вид битрейта : Постоянный
Битрейт : 384 Кбит/сек
Каналы : 6 каналов
Расположение каналов : Front: L C R, Side: L R, LFE
Частота : 48,0 КГц
Частота кадров : 31,250 кадров/сек (1536 spf)
Метод сжатия : С потерями
Размер потока : 29,7 Мбайт (7%)
Заголовок : Original - AC3 Dolby Digital, 6ch, 384 kbps, 48 kHz
Язык : English
Default : Нет
Forced : Нет

Текст
Идентификатор : 5
Формат : UTF-8
Идентификатор кодека : S_TEXT/UTF8
Идентификатор кодека/Информация : UTF-8 Plain Text
Продолжительность : 10 м. 34 с.
Битрейт : 100 бит/сек
Count of elements : 124
Размер потока : 7,75 Кбайт (0%)
Заголовок : G.I. Jogurt
Язык : English
Default : Да
Forced : Нет</span>


Трекер:  [ 11-Ноя-2016 13:00 ]

  

Скачать .torrent

Размер .torrent файла 23 KB


Размер: 8.65 GB
Хэш (hash) релиза: 6f42df0d9e8fca996862c58775ba3cc256e6fc27
Подписка на обновления:

Еще никто не оставлял запись к записи скачать торрент Робоцып Robot Chicken . Будь первым!

!Обратная связь