Скачать через торрент Последствия Aftermath Фильм бесплатно в хорошем качестве torrent

Скачивайте на UnionPeer.org фильмы через торрент без регистрации. Новинки кино в хорошем качестве через торрент. На UnionPeer.org можно скачать через торрент фильмы 2014 и 2015 годов. Самые новые фильмы.

Скачать торрент Последствия Aftermath бесплатно через .torrent фильм мультфильм сериал

Статистика раздачи
Размер:  14.04 GB   |    Зарегистрирован:  7 лет 3 месяца   |    .torrent скачан:  47 раз   |   
Раздают:  1  
   
 
Автор Сообщение

Galfimbul

avatar Galfimbul


<span class="post-font-serif1">Последствия / Aftermath</span>

Год выпуска: 2016
Страна: Канада
Жанр: Фантастика
Продолжительность: 00:40:00
Перевод: Любительский (двухголосый закадровый) Alternative Production
Режиссёр: Стефан Плещински, Джейсон Стоун, Кааре Эндрюс

В ролях: Джеймс Таппер, Энн Хеч, Леви Миден, Тэйлор Хиксон, Джулия Сара Стоун, Митчелл Каммен, Джейсон Грей-Стенфорд, Сара Циолковски, Сара Дагдэйл, Патти Ким и другие
Описание:
Главные герои — многодетное семейство Коупленд: супруги Карен и Джошуа и их дети — практичная и рассудительная Дана, романтичная Брианна и Мэтт. События происходят во время апокалипсиса. Семья Коупленд ведет борьбу за выживание в чудовищных условиях: штормы сменяются землетрясениями и метеоритными дождями, а на планете появляются сверхъестественные существа…
<a href="tracker.php?f=189,2366,842&nm=Aftermath" class="postLink">Все раздачи сериала</a>
Качество: WEB-DL 1080p
Формат: MKV
Видео кодек: H.264
Аудио кодек: AC3
Видео: H.264, 1920x1080 (16:9), 23.976 fps, 5 134 Kbps, 0.103 bit/pixel
Аудио 1: AC3 Dolby Digital, 48 kHz, 3/2 (L,C,R,l,r) + LFE ch, 384 kbps
Аудио 2: AC3 Dolby Digital, 48 kHz, 3/2 (L,C,R,l,r) + LFE ch, 384 kbps
Субтитры: отсутствуют

Релиз
General
Unique ID : 185944711007801646718896321957140172575 (0x8BE3A610BF2D12F79DC66F784EF10F1F)
Format : Matroska
Format version : Version 4 / Version 2
File size : 1.76 GiB
Duration : 42mn 39s
Overall bit rate : 5 904 Kbps
Encoded date : UTC 2016-10-07 12:28:42
Writing application : mkvmerge v8.3.0 ('Over the Horizon') 64bit
Writing library : libebml v1.3.1 + libmatroska v1.4.2
Attachments : poster (10).jpg

Video
ID : 1
Format : AVC
Format/Info : Advanced Video Codec
Format profile : High@L4
Format settings, CABAC : Yes
Format settings, ReFrames : 4 frames
Codec ID : V_MPEG4/ISO/AVC
Duration : 42mn 39s
Bit rate : 5 134 Kbps
Width : 1 920 pixels
Height : 1 080 pixels
Display aspect ratio : 16:9
Frame rate mode : Constant
Frame rate : 23.976 (23976/1000) fps
Color space : YUV
Chroma subsampling : 4:2:0
Bit depth : 8 bits
Scan type : Progressive
Bits/(Pixel*Frame) : 0.103
Stream size : 1.53 GiB (87%)
Language : English
Default : Yes
Forced : No
Color range : Limited
Color primaries : BT.709
Transfer characteristics : BT.709
Matrix coefficients : BT.709

Audio #1
ID : 2
Format : AC-3
Format/Info : Audio Coding 3
Mode extension : CM (complete main)
Format settings, Endianness : Big
Codec ID : A_AC3
Duration : 42mn 39s
Bit rate mode : Constant
Bit rate : 384 Kbps
Channel(s) : 6 channels
Channel positions : Front: L C R, Side: L R, LFE
Sampling rate : 48.0 KHz
Frame rate : 31.250 fps (1536 spf)
Compression mode : Lossy
Stream size : 117 MiB (7%)
Title : Alt Pro
Language : Russian
Default : Yes
Forced : No

Audio #2
ID : 3
Format : AC-3
Format/Info : Audio Coding 3
Mode extension : CM (complete main)
Format settings, Endianness : Big
Codec ID : A_AC3
Duration : 42mn 39s
Bit rate mode : Constant
Bit rate : 384 Kbps
Channel(s) : 6 channels
Channel positions : Front: L C R, Side: L R, LFE
Sampling rate : 48.0 KHz
Frame rate : 31.250 fps (1536 spf)
Compression mode : Lossy
Stream size : 117 MiB (7%)
Language : English
Default : No
Forced : No
Внимание! Раздача ведётся путём добавления новых серий; при каждом добавлении создётся новый торрент. Чтобы начать докачку новой серии, пользователям необходимо сделать следующее:
<ol class="post-ul">
Остановить скачивание.
Удалить старый торрент у себя из клиента (старые серии удалять не надо).
Скачать новый торрент и запустить его у себя в клиенте вместо старого, при этом указать клиенту путь в старую папку куда и должно происходить скачивание новых серий.
</ol>
Ваш клиент при этом должен произвести хеширование (проверку) старой папки (если не производит сам - помогите ему сделать это), и будет докачивать только те серии которых у вас ещё нет. Старые серии при этом не удаляются, а продолжают раздаваться!
Eсли вы уже удалили старые серии, то предотвратить повторную закачку старых серий можно, отжав галочку в соответсвующих местах при запуске нового торрента. По возможности, желательно не удалять старые серии как можно дольше чтобы релизёр не столько продолжал раздавать старые серии, а смог сконцентрироваться на новых. <a href="viewtopic.php?t=609808" class="postLink"><span class="post-font-cursive1">Как закачать отдельный файл из торрента или докачать ранее пропущенные файлы торрента!</a> </span>


Внимание! AdBlock блокирует показ скриншотов, все вопросы к разработчикам )))
Трекер:  [ 19-Ноя-2016 01:00 ]

  

Скачать .torrent

Размер .torrent файла 36 KB


Размер: 14.04 GB
Хэш (hash) релиза: 2825d79914c06686a9f1be15b3d7bfff6b2b76b4
Подписка на обновления:

Еще никто не оставлял запись к записи скачать торрент Последствия Aftermath . Будь первым!

!Обратная связь