Скачать через торрент Кесем Султан Kösem Sultan Фильм бесплатно в хорошем качестве torrent

Скачивайте на UnionPeer.org фильмы через торрент без регистрации. Новинки кино в хорошем качестве через торрент. На UnionPeer.org можно скачать через торрент фильмы 2014 и 2015 годов. Самые новые фильмы.

Скачать торрент Кесем Султан Kösem Sultan бесплатно через .torrent фильм мультфильм сериал

Статистика раздачи
Размер:  1.22 GB   |    Зарегистрирован:  7 лет 3 месяца   |    .torrent скачан:  206 раз   |   
Раздают:  1  
   
 
Автор Сообщение

Galfimbul

avatar Galfimbul


Кесем Султан / Kösem Sultan

Год выпуска: 2016
Страна: Турция
Производство: TIMS Productions
Жанр: История, драма
Серии (количество): 1 (??)
Продолжительность: 2:20:00
Перевод: любительский одноголосый закадровый (turok1990)
Субтитры: отсутствуют

Режиссёр: Зейнеп Гунай, Мерт Байкал, Ягыз Альп Акайдын

В ролях: Берен Саат, Хюлья Авшар, Erkan Kolcak Kostendil, Селчук Демир, Мете Хорозоглу, Аликан Юджесой, Йильдиз Чагри Аксой, Аслихан Гюрбюз, Анастасия Цилимпоу, Тюлин Озен и другие

Описание: После сногсшибательного успеха Великолепного Века, продюсеры и создатели сериала не смогли навсегда покинуть павильоны воссозданного дворца Топ Капы и приготовили всем зрителям замечательный сюрприз. Сериал «Кесем Султан» станет продолжением блестящего века Османской Империи и расскажет нам о женщине, которая жила по прошествии двух веков после правления Сулеймана и стала еще более значимой фигурой в истории.
Кто же такая Кесем Султан? И почему эта женщина стала влиятельнее, чем Хюррем? Смотреть продолжение Великолепного Века: Кесем Султан онлайн просто необходимо, ведь эта захватывающая история также затрагивает темы дворцовых интриг, гаремных сплетен и жесткой борьбой за влияние и власть. Восхитительные костюмы, роскошные декорации, красивые актеры и конечно же, среди всего этого великолепия, увлекательная история сильной женщины, по имени Кесем Султан.
Сюжетная линия "Кесем" окунет зрителя в атмосферу шикарных дворцов, и изобилие Османской империи, со слов создателей просмотр должен стать не забываемым и эксклюзивным, а встречи с новыми героями и персонажами интересными и захватывающими.

Сценарий со слов создателей был написан, на реальных событиях.

Главная героиня Кесем Султан решительная и волевая женщина, именно к таким особом турки питают слабость, вознося их до небес.

Кесем единственная девушка у которой страной правил собственный сын и внук, но по факту всем заправляла она, некоторые ее называли Махпейкер - что в переводе с турецкого "самая любимая" или "луноликая".

Родословная Кесем до настоящее времени точно неизвестна, как тот момент ее попадания в один из гаремов, известно только, что она попала туда из другого государства.

Тогдашний правитель Ахмед первый, тринадцатилетний подросток только зашедший на трон в группе наложниц выделил очень красивую девушку, это и была главная героиня, с того момента и начался ее нелегкий путь восхождения на престол.

Молодая девушка быстро разобралась в устоях местного народа, чужеземное происхождение ни как не помешало ей познать всю суть турецкой культуры, что в дальнейшем позволило ей стать властной женщиной и править Османской империей более десяти лет.

В основу сериала легла жизненная история знаменитой Кёсем Султан – девушке, попавшей в юном возрасте в гарем к султану, со временем ставшей самой влиятельной женщиной Османской империи.
Оказавшись среди наложниц Ахмеда I под именем Махпейкер, что переводится как «луноликая», девушка, очаровав правителя своей красотой, получает от него имя Кёсем, в переводе, означавшем «самая любимая». Со временем став фавориткой падишаха, который ни в чём не отказывал своей возлюбленной, Махпейкер всё же имела осторожность не обсуждать с ним важные вопросы и государственные дела, опасаясь лишиться благосклонности правителя, желавшего быть независимым от женщин в принятии ответственных решений. Стараясь самостоятельно не вмешиваться в политическую жизнь страны, она выдала своих дочерей за приближенных к султану паша, которые пользовались её покровительством, в дальнейшем ставшие могущественной опорой её партии. После смерти Ахмеда I, Кёсем Султан начинает плести хитрую паутину интриг и коварных предательств с целью поставить во главу великой империи своего малолетнего сына, чтобы с помощью него обрести власть над страной.

Доп. информация: Перевод сериала - Meliss, Meyila, по заказу сайта TurkCinematv. Озвучка - turok1990

Ссылка на предыдущие и альтернативные раздачи: <a href="tracker.php?nm=%D0%9A%D0%B5%D1%81%D0%B5%D0%BC%20%D0%A1%D1%83%D0%BB%D1%82" class="postLink">http://rutracker.org/forum/tracker.php?nm=%D0%9A%D0...%D1%82</a>

Качество: WEBRip (720p)
Формат: MP4
Видео кодек: H.264
Аудио кодек: AAC
Видео: MPEG4 Video (H264) 1280x720 25fps 1 024 Kbps
Аудио: AAC 44100Hz stereo 178kbps
General
Complete name : H:\Сериалы\Kosem.Sultan.2.sezon.2016.L1.turok1990.WEBRip720p\Kosem.Sultan.s02.e01.(e31).2016.L1.turok1990.WEBRip720p.mp4
Format : MPEG-4
Format profile : Base Media
Codec ID : isom
File size : 1.22 GiB
Duration : 2h 22mn
Overall bit rate : 1 230 Kbps
Writing application : Lavf56.25.101

Video
ID : 1
Format : AVC
Format/Info : Advanced Video Codec
Format profile : [email protected]
Format settings, CABAC : Yes
Format settings, ReFrames : 4 frames
Codec ID : avc1
Codec ID/Info : Advanced Video Coding
Duration : 2h 22mn
Bit rate : 1 024 Kbps
Width : 1 280 pixels
Height : 720 pixels
Display aspect ratio : 16:9
Frame rate mode : Constant
Frame rate : 25.000 fps
Color space : YUV
Chroma subsampling : 4:2:0
Bit depth : 8 bits
Scan type : Progressive
Bits/(Pixel*Frame) : 0.044
Stream size : 1.04 GiB (85%)
Writing library : x264 core 146
Encoding settings : cabac=1 / ref=3 / deblock=1:0:0 / analyse=0x3:0x113 / me=hex / subme=7 / psy=1 / psy_rd=1.00:0.00 / mixed_ref=1 / me_range=16 / chroma_me=1 / trellis=1 / 8x8dct=1 / cqm=0 / deadzone=21,11 / fast_pskip=1 / chroma_qp_offset=-2 / threads=36 / lookahead_threads=5 / sliced_threads=0 / nr=0 / decimate=1 / interlaced=0 / bluray_compat=0 / constrained_intra=0 / bframes=3 / b_pyramid=2 / b_adapt=1 / b_bias=0 / direct=1 / weightb=1 / open_gop=0 / weightp=2 / keyint=50 / keyint_min=5 / scenecut=40 / intra_refresh=0 / rc_lookahead=40 / rc=2pass / mbtree=1 / bitrate=1024 / ratetol=97.5 / qcomp=0.60 / qpmin=0 / qpmax=69 / qpstep=4 / cplxblur=20.0 / qblur=0.5 / ip_ratio=1.40 / aq=1:1.00

Audio
ID : 2
Format : AAC
Format/Info : Advanced Audio Codec
Format profile : LC
Codec ID : 40
Duration : 2h 22mn
Bit rate mode : Constant
Bit rate : 178 Kbps
Channel(s) : 2 channels
Channel positions : Front: L R
Sampling rate : 44.1 KHz
Compression mode : Lossy
Stream size : 181 MiB (14%)


Внимание! AdBlock блокирует показ скриншотов, все вопросы к разработчикам )))
Трекер:  [ 19-Ноя-2016 20:30 ]

  

Скачать .torrent

Размер .torrent файла 12 KB


Размер: 1.22 GB
Хэш (hash) релиза: 2d8958051560ce56c1c7095d3c6f25f3d44e1f52
Подписка на обновления:

Еще никто не оставлял запись к записи скачать торрент Кесем Султан Kösem Sultan . Будь первым!

!Обратная связь