Скачать через торрент Восставший Воскресение Христа Фильм бесплатно в хорошем качестве torrent

Скачивайте на UnionPeer.org фильмы через торрент без регистрации. Новинки кино в хорошем качестве через торрент. На UnionPeer.org можно скачать через торрент фильмы 2014 и 2015 годов. Самые новые фильмы.

Скачать торрент Восставший Воскресение Христа бесплатно через .torrent фильм мультфильм сериал

Статистика раздачи
Размер:  6.07 GB   |    Зарегистрирован:  7 лет 3 месяца   |    .torrent скачан:  53 раза   |   
Раздают:  1  
   
 
Автор Сообщение

Galfimbul

avatar Galfimbul


<span class="post-font-cursive1">Восставший / Воскресение Христа<span class="post-font-cursive1">Risen / The Resurrection of Jesus Christ</span><span class="post-font-cursive1">«Witness the manhunt that changed the course of human history»</span></span>

<span class="post-font-serif1">Страна: США
Жанр: драма, приключения
Год выпуска: 2016
Продолжительность: 01:43:10

Перевод: Профессиональный (многоголосый закадровый) Пифагор*
Cубтитры: нет
Оригинальная аудиодорожка: нет



Режиссер: Кевин Рейнольдс / Kevin Reynolds

В ролях: Джозеф Файнс, Том Фелтон, Питер Фёрт, Клифф Кёртис, Мария Ботто, Луис Кальехо, Антонио Хиль-Мартинес, Ричард Этуилл, Стюарт Скудамор, Энди Гэтергуд



Описание: 33 год н. э. Римскому трибуну в Иудее дано задание найти пропавшее тело распятого накануне еврея, который, судя по слухам, воскрес.



*Текст читали: Олег Вирозуб, Даниил Эльдаров, Ольга Голованова, Александр Коврижных
>>> Собственная запись со спутника Eutelsat 36A/36B (36°E) | TV1000 Premium HD (эфир 18.11.2016г.)

Тип релиза: HDTV 1080i
Контейнер: MKV

Видео: MPEG-4 AVC / PAL 16:9 / 1920x1080 (1,78:1) / 8031 kbps / 25,000 fps / 0.077 bit/pixel / High@L4
Аудио: Russian / Dolby Digital Audio / 5.1 Ch / 48 kHz / 384 kbps / 16 bit | MVO | Пифагор*
Навигация по главам: есть</span>
Общее
Уникальный идентификатор                 : 251631002596720349602754748427300677823 (0xBD4E5E47D787A2E2848A1135B152A8BF)
Полное имя                               : N:\HDTV\Risen 2016 1080i HDTV MPEG4 DD5.1.mkv
Формат                                   : Matroska
Версия формата                           : Version 4 / Version 2
Размер файла                             : 6,07 Гбайт
Продолжительность                        : 1 ч. 43 м.
Общий поток                              : 8418 Кбит/сек
Название фильма                          : Release for RuTracker © flaSI-I
Дата кодирования                         : UTC 2016-11-18 20:38:31
Программа кодирования                    : mkvmerge v9.5.0 ('Quiet Fire') 64bit
Библиотека кодирования                   : libebml v1.3.4 + libmatroska v1.4.5

Видео
Идентификатор                            : 1
Формат                                   : AVC
Формат/Информация                        : Advanced Video Codec
Профиль формата                          : High@L4
Параметр CABAC формата                   : Да
Параметр ReFrames формата                : 4 кадра
Идентификатор кодека                     : V_MPEG4/ISO/AVC
Продолжительность                        : 1 ч. 43 м.
Битрейт                                  : 8031 Кбит/сек
Ширина                                   : 1920 пикселей
Высота                                   : 1080 пикселей
Соотношение сторон                       : 16:9
Режим частоты кадров                     : Переменный
Частота кадров                           : 50,000 кадров/сек
Частота кадров в оригинале               : 25,000 кадров/сек
Стандарт вещания                         : Component
Цветовое пространство                    : YUV
Субдискретизация насыщенности            : 4:2:0
Битовая глубина                          : 8 бит
Тип развёртки                            : Чересстрочная
Метод сохранения типа развёртки          : Раздельные поля
Порядок развёртки                        : Верхнее поле первое
Бит/(Пиксели*Кадры)                      : 0.077
Размер потока                            : 5,79 Гбайт (95%)
Язык                                     : English
Default                                  : Да
Forced                                   : Нет
Цветовой диапазон                        : Limited
Основные цвета                           : BT.709
Характеристики трансфера                 : BT.709
Коэффициенты матрицы                     : BT.709

Аудио
Идентификатор                            : 2
Формат                                   : AC-3
Формат/Информация                        : Audio Coding 3
Расширение режима                        : CM (complete main)
Параметр Endianness формата              : Big
Идентификатор кодека                     : A_AC3
Продолжительность                        : 1 ч. 43 м.
Вид битрейта                             : Постоянный
Битрейт                                  : 384 Кбит/сек
Каналы                                   : 6 каналов
Расположение каналов                     : Front: L C R, Side: L R, LFE
Частота                                  : 48,0 КГц
Частота кадров                           : 31,250 кадров/сек (1536 spf)
Битовая глубина                          : 16 бит
Метод сжатия                             : С потерями
Размер потока                            : 283 Мбайт (5%)
Заголовок                                : MVO | Пифагор
Язык                                     : Russian
Default                                  : Да
Forced                                   : Нет

Меню
00:06:50.243                             : en:CHAPTER 01
00:14:18.732                             : en:CHAPTER 02
00:21:48.181                             : en:CHAPTER 03
00:27:35.195                             : en:CHAPTER 04
00:33:21.082                             : en:CHAPTER 05
00:40:03.984                             : en:CHAPTER 06
00:46:19.193                             : en:CHAPTER 07
00:54:06.243                             : en:CHAPTER 08
01:00:06.477                             : en:CHAPTER 09
01:07:53.027                             : en:CHAPTER 10
01:13:54.847                             : en:CHAPTER 11
01:19:46.656                             : en:CHAPTER 12
01:25:42.387                             : en:CHAPTER 13
01:33:16.132                             : en:CHAPTER 14
<span class="post-font-serif1">HDTV-----------|---------------BD</span>


Внимание! AdBlock блокирует показ скриншотов, все вопросы к разработчикам )))
Трекер:  [ 22-Ноя-2016 11:30 ]

  

Скачать .torrent

Размер .torrent файла 30 KB


Размер: 6.07 GB
Хэш (hash) релиза: b73b35982b928fd1762a909dd2c7248371990202
Подписка на обновления:

Торренты, похожие на Восставший Воскресение Христа скачать торрент

Форум Название Автор Размер S L Добавлен
Зарубежные фильмы 2016-2019 (Новинки зарубежного кино) ·· Восставший / Воскресение Христа / Risen / The Resurrection of Jesus Christ (Кевин Рейнольдс / Kevin Reynolds) [2016, США, драма, приключения, BDRip] Лицензия Galfimbul 22058667222.05 GB 0 0 1482842546

15:42

27-Дек-16

Еще никто не оставлял запись к записи скачать торрент Восставший Воскресение Христа . Будь первым!

!Обратная связь