Скачать через торрент Йоганутые Yoga Hosers Фильм бесплатно в хорошем качестве torrent

Скачивайте на UnionPeer.org фильмы через торрент без регистрации. Новинки кино в хорошем качестве через торрент. На UnionPeer.org можно скачать через торрент фильмы 2014 и 2015 годов. Самые новые фильмы.

Скачать торрент Йоганутые Yoga Hosers бесплатно через .torrent фильм мультфильм сериал

Статистика раздачи
Размер:  8.77 GB   |    Зарегистрирован:  7 лет 6 месяцев   |    .torrent скачан:  92 раза   |   
Раздают:  1  
 

Скачать Йоганутые / Yoga Hosers (Кевин Смит) [2016, ужасы, фэнтези, триллер, комедия, BDRip 1080p] iTunes через torrent

 
 
Автор Сообщение

Galfimbul

avatar Galfimbul


Информация о фильме
Йоганутые /Yoga Hosers

Год выпуска: 2016
Жанр: Ужасы, фэнтези, триллер, комедия
Режиссер: Кевин Смит (I)
В ролях: Лили-Роуз Мелоди Депп, Харли Куинн Смит, Ванесса Паради, Остин Роберт Батлер, Тайлер Пози, Джонни Депп, Джастин Лонг, Ральф Гармен, Хейли Джоэл Осмент, Дженезис Родригез

О фильме:
Колин Колетт и Колин МакКензи из Манитобы помешаны на йоге. В то же время они вынуждены подрабатывать после школы в небольшом магазинчике, и эту работу они терпеть не могут. Однако долго скучать школьницам не приходится: «вселенское зло», возникшее в прямом смысле слова «из-под земли», грозит им сорвать долгожданную вечеринку для старшеклассников. Тогда девушки объединяются с охотником за головами — Ги Ла Пойнтом, чтобы бороться с демонами зла с помощью всех «семи чакр и одной позы воина».



Страна: США
Студия: Abbolita Productions
Продолжительность: 01:27:37
Перевод: Дублированный | iTunes

Файл
Качество: BDRip (1080p)
Видео: MPEG-4 AVC, 13500 Кбит/с, 1920x800
Аудио: Русский (AC3, 6 ch, 384 Кбит/с), английский (AC3, 6 ch, 448 Кбит/с)
Субтитры: Английские
Общее
Уникальный идентификатор : 197489718782036589053622144015908522894 (0x949322E548AA3348BFA510035D30CB8E)
Полное имя : D:загрузкиYoga.Hosers.2016.D.1080p.BluRay.mkv
Формат : Matroska
Версия формата : Version 2
Размер файла : 8,77 Гбайт
Продолжительность : 1 ч. 27 м.
Общий поток : 14,3 Мбит/сек
Дата кодирования : UTC 2016-11-27 13:03:44
Программа кодирования : mkvmerge v7.8.0 ('River Man') 32bit built on Apr 3 2015 12:11:22
Библиотека кодирования : libebml v1.3.1 + libmatroska v1.4.2

Видео
Идентификатор : 1
Формат : AVC
Формат/Информация : Advanced Video Codec
Профиль формата : [email protected]
Параметр CABAC формата : Да
Параметр ReFrames формата : 5 кадров
Идентификатор кодека : V_MPEG4/ISO/AVC
Продолжительность : 1 ч. 27 м.
Битрейт : 13,5 Мбит/сек
Ширина : 1920 пикселей
Высота : 800 пикселей
Соотношение сторон : 2,40:1
Режим частоты кадров : Постоянный
Частота кадров : 23,976 кадра/сек
Цветовое пространство : YUV
Субдискретизация насыщенности : 4:2:0
Битовая глубина : 8 бит
Тип развёртки : Прогрессивная
Бит/(Пиксели*Кадры) : 0.367
Размер потока : 8,09 Гбайт (92%)
Библиотека кодирования : x264 core 142 r2431+42 c69a006 tMod [8-bit@all X86_64]
Настройки программы : cabac=1 / ref=5 / deblock=1:-3:-3 / analyse=0x3:0x113 / me=umh / subme=11 / psy=1 / fade_compensate=0.00 / psy_rd=1.05:1.05 / mixed_ref=1 / me_range=48 / chroma_me=1 / trellis=2 / 8x8dct=1 / cqm=0 / deadzone=21,11 / fast_pskip=0 / chroma_qp_offset=-4 / threads=16 / lookahead_threads=4 / sliced_threads=0 / nr=0 / decimate=0 / interlaced=0 / bluray_compat=0 / constrained_intra=0 / fgo=0 / bframes=10 / b_pyramid=2 / b_adapt=2 / b_bias=0 / direct=3 / weightb=1 / open_gop=0 / weightp=2 / keyint=240 / keyint_min=23 / scenecut=40 / intra_refresh=0 / rc_lookahead=150 / rc=2pass / mbtree=0 / bitrate=13500 / ratetol=1.0 / qcomp=0.68 / qpmin=0:0:0 / qpmax=69:69:69 / qpstep=4 / cplxblur=20.0 / qblur=0.5 / vbv_maxrate=62500 / vbv_bufsize=78125 / nal_hrd=none / filler=0 / ip_ratio=1.30 / pb_ratio=1.20 / aq=2:0.78 / aq-sensitivity=10.00 / aq-factor=1.00:1.00:1.00 / aq2=0 / aq3=0
Default : Да
Forced : Нет
Основные цвета : BT.709
Характеристики трансфера : BT.709
Коэффициенты матрицы : BT.709

Аудио #1
Идентификатор : 2
Формат : AC-3
Формат/Информация : Audio Coding 3
Расширение режима : CM (complete main)
Параметр Endianness формата : Big
Идентификатор кодека : A_AC3
Продолжительность : 1 ч. 27 м.
Вид битрейта : Постоянный
Битрейт : 384 Кбит/сек
Каналы : 6 каналов
Расположение каналов : Front: L C R, Side: L R, LFE
Частота : 48,0 КГц
Битовая глубина : 16 бит
Метод сжатия : С потерями
Размер потока : 241 Мбайт (3%)
Заголовок : iTunes
Язык : Russian
Default : Да
Forced : Нет

Аудио #2
Идентификатор : 3
Формат : AC-3
Формат/Информация : Audio Coding 3
Расширение режима : CM (complete main)
Параметр Endianness формата : Big
Идентификатор кодека : A_AC3
Продолжительность : 1 ч. 27 м.
Вид битрейта : Постоянный
Битрейт : 448 Кбит/сек
Каналы : 6 каналов
Расположение каналов : Front: L C R, Side: L R, LFE
Частота : 48,0 КГц
Битовая глубина : 16 бит
Метод сжатия : С потерями
Размер потока : 281 Мбайт (3%)
Язык : English
Default : Нет
Forced : Нет

Текст
Идентификатор : 4
Формат : UTF-8
Идентификатор кодека : S_TEXT/UTF8
Идентификатор кодека/Информация : UTF-8 Plain Text
Язык : English
Default : Нет
Forced : Нет

Меню
00:00:00.000 : en:00:00:00.000
00:18:42.371 : en:00:18:42.371
00:38:27.305 : en:00:38:27.305
00:53:03.180 : en:00:53:03.180
01:01:08.665 : en:01:01:08.665
01:17:45.286 : en:01:17:45.286
01:20:11.682 : en:01:20:11.682


Внимание! AdBlock блокирует показ скриншотов, все вопросы к разработчикам )))

Трекер:  [ 27-Ноя-2016 17:30 ]

  

Скачать .torrent

Размер .torrent файла 44 KB


Размер: 8.77 GB
Хэш (hash) релиза: 4b9c7b0671b87f384c7a61a54800bf9b103b86b9
Подписка на обновления:

Еще никто не оставлял запись к записи скачать торрент Йоганутые Yoga Hosers . Будь первым!

!Обратная связь