Скачать через торрент Счастливый ключ Leokki Фильм бесплатно в хорошем качестве torrent

Скачивайте на UnionPeer.org фильмы через торрент без регистрации. Новинки кино в хорошем качестве через торрент. На UnionPeer.org можно скачать через торрент фильмы 2014 и 2015 годов. Самые новые фильмы.

Скачать торрент Счастливый ключ Leokki бесплатно через .torrent фильм мультфильм сериал

Статистика раздачи
Размер:  1.37 GB   |    Зарегистрирован:  7 лет 5 месяцев   |    .torrent скачан:  264 раза   |   
Раздают:  1  
 

Скачать Счастливый ключ / Leokki (Ли Ге-бёк) [2016, комедия, WEBRip] через torrent

 
 
Автор Сообщение

Galfimbul

avatar Galfimbul


Название: Счастливый ключ
Оригинальное название: Leokki
Год выхода: 2016
Жанр: комедия
Режиссер: Ли Ге-бёк
В ролях: Ю Хэ-джин, Ли Джун, Чо Юн-хи, Лим Джи-ён, Чо Хан-чхоль, Сон Бён-сук, Чон Хе-бин

О фильме: Неудачливый актёр Чэ-сон думает свести счёты с жизнью и напоследок решает сходить в баню. У киллера Хён-ука дела наоборот идут в гору, и он оказывается в той же самой общественной бане. Но вот незадача — поскальзывается на мыле, ударяется головой и лишается памяти. Чэ-сон решает воспользоваться ситуацией и избавиться от своей никчёмной жизни, подменив ключ от шкафчика пострадавшего на свой. Теперь киллер станет актёром, а актёр — киллером.



Выпущено: Корея Южная
Продолжительность: 01:52:47
Озвучивание: Любительское (двухголосое) [Студия Колобок]

Роли озвучивали: den904, DeadSno
Перевод: Сергея Скворцова

Примечание: Релиз без рекламы.

Файл
Формат: AVI | XviD
Качество: WEBRip
Видео: 1530 kb/s, 720x304, 29.970 fps
Аудио: AC3, 192 kb/s (2 ch)
Субтитры: отсутствуют
Общее
Полное имя : D:загрузкиLukki.2016.WEB-DLRip.[Студия Колобок].avi
Формат : AVI
Формат/Информация : Audio Video Interleave
Размер файла : 1,37 Гбайт
Продолжительность : 1 ч. 52 м.
Общий поток : 1733 Кбит/сек
Программа кодирования : VirtualDubMod 1.5.10.3 | www.virtualdub-fr.org || (build 2550/release)
Библиотека кодирования : VirtualDubMod build 2550/release

Видео
Идентификатор : 0
Формат : MPEG-4 Visual
Профиль формата : Advanced Simple@L5
Параметр BVOP формата : 1
Параметр QPel формата : Нет
Параметр GMC формата : Без точки перехода
Параметр матрицы формата : Выборочная
Идентификатор кодека : XVID
Идентификатор кодека/Подсказка : XviD
Продолжительность : 1 ч. 52 м.
Битрейт : 1529 Кбит/сек
Ширина : 720 пикселей
Высота : 304 пикселя
Соотношение сторон : 2,35:1
Частота кадров : 29,970 кадров/сек
Цветовое пространство : YUV
Субдискретизация насыщенности : 4:2:0
Битовая глубина : 8 бит
Тип развёртки : Прогрессивная
Метод сжатия : С потерями
Бит/(Пиксели*Кадры) : 0.233
Размер потока : 1,20 Гбайт (88%)
Библиотека кодирования : XviD 73

Аудио
Идентификатор : 1
Формат : AC-3
Формат/Информация : Audio Coding 3
Расширение режима : CM (complete main)
Параметр Endianness формата : Big
Идентификатор кодека : 2000
Продолжительность : 1 ч. 52 м.
Вид битрейта : Постоянный
Битрейт : 192 Кбит/сек
Каналы : 2 канала
Расположение каналов : Front: L R
Частота : 48,0 КГц
Битовая глубина : 16 бит
Метод сжатия : С потерями
Размер потока : 155 Мбайт (11%)
Выравнивание : Разделение по промежуткам
Продолжительность промежутка : 33 мс. (1,00 видеокадр)
Время предзагрузки промежутка : 500 мс.






Внимание! AdBlock блокирует показ скриншотов, все вопросы к разработчикам )))

Трекер:  [ 29-Ноя-2016 23:00 ]

  

Скачать .torrent

Размер .torrent файла 14 KB


Размер: 1.37 GB
Хэш (hash) релиза: 8189e74284954608cdc1087db9a6eaf67b511911
Подписка на обновления:

Еще никто не оставлял запись к записи скачать торрент Счастливый ключ Leokki . Будь первым!

!Обратная связь