Скачать порно через торрент The Pickup Player Пикаперы UnionPeer.org бесплатно онлайн HD качество

Скачать новое порно 2015, 2014 новинки через торрент UnionPeer.org

Порно торрент бесплатно ЮнионПир.орг

Статистика раздачи
Размер:  4.37 GB   |    Зарегистрирован:  9 лет   |    .torrent скачан:  143 раза   |   
Раздают:  1  
 

Скачать The Pickup Player / Пикаперы (Patrick Kay / Penthouse)[2011., All Sex., HDTV.] через torrent

 
Timeweb Many GEOs Sprinthost
загрузка...
 
Автор Сообщение

Curtis

avatar Curtis



The Pickup Player / Пикаперы
*(Release Date:Feb 02h, 2011)


Год производства: 2011г.
Страна: USA.
Язык: Английский.
Продолжительность: 117 MiN.
Режисёр: Patrick Kay
Студия: Penthouse.
Жанр: All Sex
В ролях: Asa Akira, Kylee Reese, McKenzie Lee, Candice Nicole, Vicki Chase, Alexis Rae, Rocco Reed, Danny Mountain, Xander Corvus, Jay Rock
Описание: Score some XXX hardcore pussy!
Get the girl, then get some head!
This is the only Patrick Kay video.
Доп. информация: http://www.cduniverse.com/productinfo.asp?pid=8450497&style=ice
Качество: HDTV.
Формат: Matroska.
Видео кодек: (H264)
Аудио кодек: AC-3 audio.
Video: MPEG4 Video, (H264), 1280x720, 25.00fps, 5.135 kpbs [Video]
Audio: Dolby AC3, 48000Hz, stereo, 192 kbp [Audio]
General
Unique ID : 221477827102928379744328957948348078440 (0xA69F13F2CBF9DA169A3D6B6CBAD41968)
Complete name : Q:\PL\HD-Bluray.x264\Penthouse.The.Pickup.Player.XXX.2011.HDTV.720p.x264-\shdxxx-ThePickupPlayer.mkv
Format : Matroska
File size : 4.37 GiB
Duration : 1h 57mn
Overall bit rate : 5 329 Kbps
Encoded date : UTC 2011-06-24 15:12:31
Writing application : mkvmerge v4.8.0 ('I Got The...') built on May 24 2011 03:12:58
Writing library : libebml v1.2.0 + libmatroska v1.1.0
Video
ID : 1
Format : AVC
Format/Info : Advanced Video Codec
Format profile : High@L4.1
Format settings, CABAC : Yes
Format settings, ReFrames : 5 frames
Codec ID : V_MPEG4/ISO/AVC
Duration : 1h 57mn
Bit rate : 5 135 Kbps
Width : 1 280 pixels
Height : 720 pixels
Display aspect ratio : 16:9
Frame rate : 25.000 fps
Color space : YUV
Chroma subsampling : 4:2:0
Bit depth : 8 bits
Scan type : Progressive
Bits/(Pixel*Frame) : 0.223
Stream size : 4.13 GiB (94%)
Writing library : x264 core 115 r2008 4c552d8
Encoding settings : cabac=1 / ref=5 / deblock=1:0:0 / analyse=0x3:0x133 / me=umh / subme=7 / psy=1 / psy_rd=1.00:0.00 / mixed_ref=1 / me_range=16 / chroma_me=0 / trellis=1 / 8x8dct=1 / cqm=0 / deadzone=21,11 / fast_pskip=0 / chroma_qp_offset=-2 / threads=12 / sliced_threads=0 / nr=0 / decimate=1 / interlaced=0 / bluray_compat=0 / constrained_intra=0 / bframes=3 / b_pyramid=2 / b_adapt=1 / b_bias=0 / direct=1 / weightb=1 / open_gop=0 / weightp=2 / keyint=250 / keyint_min=25 / scenecut=40 / intra_refresh=0 / rc_lookahead=40 / rc=2pass / mbtree=1 / bitrate=5135 / ratetol=1.0 / qcomp=0.60 / qpmin=0 / qpmax=51 / qpstep=4 / cplxblur=20.0 / qblur=0.5 / ip_ratio=1.40 / aq=1:1.00
Audio
ID : 2
Format : AC-3
Format/Info : Audio Coding 3
Mode extension : CM (complete main)
Codec ID : A_AC3
Duration : 1h 57mn
Bit rate mode : Constant
Bit rate : 192 Kbps
Channel(s) : 2 channels
Channel positions : Front: L R
Sampling rate : 48.0 KHz
Bit depth : 16 bits
Compression mode : Lossy
Stream size : 161 MiB (4%)
Language : English


Внимание! AdBlock блокирует показ скриншотов, все вопросы к разработчикам )))
Трекер:  [ 28-Июн-2011 07:38 ]

  

Скачать .torrent

Размер .torrent файла 351 KB


Размер: 4.37 GB
Хэш (hash) релиза: 313c4d14cc81b446313484a22f74167151d3777c
Superjob
dpd RU

Еще никто не оставлял запись к записи скачать торрент The Pickup Player Пикаперы . Будь первым!

!Обратная связь