Скачать через торрент Девять жизней Эльфего Бака: Закон и Порядок The Nine Lives of Elfego Baca: Law and Order, Incorporated Фильм бесплатно в хорошем качестве torrent

Скачивайте на UnionPeer.org фильмы через торрент без регистрации. Новинки кино в хорошем качестве через торрент. На UnionPeer.org можно скачать через торрент фильмы 2014 и 2015 годов. Самые новые фильмы.

Скачать торрент Девять жизней Эльфего Бака: Закон и Порядок The Nine Lives of Elfego Baca: Law and Order, Incorporated бесплатно через .torrent фильм мультфильм сериал

Статистика раздачи
Размер:  753 MB   |    Зарегистрирован:  7 лет 2 месяца   |    .torrent скачан:  21 раз   |   
Раздают:  1  
   
 
Автор Сообщение

Galfimbul

avatar Galfimbul




Девять жизней Эльфего Бака: Закон и Порядок / The Nine Lives of Elfego Baca: Law and Order, Incorporated

<a href="viewtopic.php?t=5130472" class="postLink">Эпизод первый</a> | <a href="viewtopic.php?t=5245173" class="postLink">Эпизод второй</a> | <a href="viewtopic.php?t=5295388" class="postLink">Эпизод третий</a> | Эпизод четвертый

Страна: США
Жанр: Вестерн
Год выпуска: 1958
Продолжительность: 00:48:27

Перевод: Одноголосый закадровый
Cубтитры: нет
Оригинальная аудиодорожка: английский
Режиссер: Кристиан Найби / Christian Nyby
В ролях: Уолт Дисней, Роберт Логгиа, Джеймс Данн, Рамон Наварро, Скип Хомейер, Валери Аллен, Карл Бентон Рейд, Клегг Хойт, Джо Маросс и другие
Эльфего и Ньюман снова приходят на помощь Эстебану Миранда.
Они встают на пути мошенников, рискуя лишиться свободы и жизни.
Доп. информация:
Перевод: Свен Железнов
Закадровый текст: Артем Мосин - Щепачев
Монтаж и сведение звука: Grandfather61
Фильм переведен и озвучен специально для: 7букв Вестерн / группа Джесси Джеймса
Отдельная благодарность Alassea за предоставленную русскую звуковую дорожку.

Качество видео: TVRip
Формат видео: AVI

Видео: 640x480 (1.33:1), 23.976 fps, XviD build 67 ~1774 kbps avg, 0.24 bit/pixel
Аудио # rus: 48 kHz, AC3 Dolby Digital, 2/0 (L,R) ch, ~192 kbps
Аудио # eng: 48 kHz, AC3 Dolby Digital, 2/0 (L,R) ch, ~192 kbps
General
Complete name : F:\РАЗБОР\ Efego Baca Law And Order, Incorporated\Law.and.Order.Incorporated.1958.Rus.Eng.avi
Format : AVI
Format/Info : Audio Video Interleave
File size : 753 MiB
Duration : 48mn 27s
Overall bit rate : 2 173 Kbps
Writing application : VirtualDubMod 1.5.10.3 (build 2550/release)
Writing library : VirtualDubMod build 2550/release

Video
ID : 0
Format : MPEG-4 Visual
Format profile : Advanced Simple@L5
Format settings, BVOP : 1
Format settings, QPel : No
Format settings, GMC : No warppoints
Format settings, Matrix : Default (MPEG)
Codec ID : XVID
Codec ID/Hint : XviD
Duration : 48mn 27s
Bit rate : 1 775 Kbps
Width : 640 pixels
Height : 480 pixels
Display aspect ratio : 4:3
Frame rate : 23.976 (24000/1001) fps
Color space : YUV
Chroma subsampling : 4:2:0
Bit depth : 8 bits
Scan type : Progressive
Compression mode : Lossy
Bits/(Pixel*Frame) : 0.241
Stream size : 615 MiB (82%)
Writing library : XviD 67

Audio #1
ID : 1
Format : AC-3
Format/Info : Audio Coding 3
Mode extension : CM (complete main)
Format settings, Endianness : Big
Codec ID : 2000
Duration : 48mn 27s
Bit rate mode : Constant
Bit rate : 192 Kbps
Channel(s) : 2 channels
Channel positions : Front: L R
Sampling rate : 48.0 KHz
Frame rate : 31.250 fps (1536 spf)
Compression mode : Lossy
Stream size : 66.6 MiB (9%)
Alignment : Split accross interleaves
Interleave, duration : 42 ms (1.00 video frame)
Interleave, preload duration : 500 ms

Audio #2
ID : 2
Format : AC-3
Format/Info : Audio Coding 3
Mode extension : CM (complete main)
Format settings, Endianness : Big
Codec ID : 2000
Duration : 48mn 27s
Bit rate mode : Constant
Bit rate : 192 Kbps
Channel(s) : 2 channels
Channel positions : Front: L R
Sampling rate : 48.0 KHz
Frame rate : 31.250 fps (1536 spf)
Compression mode : Lossy
Stream size : 66.6 MiB (9%)
Alignment : Split accross interleaves
Interleave, duration : 42 ms (1.00 video frame)
Interleave, preload duration : 500 ms


Внимание! AdBlock блокирует показ скриншотов, все вопросы к разработчикам )))
Трекер:  [ 06-Дек-2016 19:30 ]

  

Скачать .torrent

Размер .torrent файла 15 KB


Размер: 753 MB
Хэш (hash) релиза: 5992d094f12547cb97d16183a795c3c709aa8afa
Подписка на обновления:

Еще никто не оставлял запись к записи скачать торрент Девять жизней Эльфего Бака: Закон и Порядок The Nine Lives of Elfego Baca: Law and Order, Incorporated . Будь первым!

!Обратная связь