Скачать через торрент Не дыши Dont Breathe Фильм бесплатно в хорошем качестве torrent

Скачивайте на UnionPeer.org фильмы через торрент без регистрации. Новинки кино в хорошем качестве через торрент. На UnionPeer.org можно скачать через торрент фильмы 2014 и 2015 годов. Самые новые фильмы.

Скачать торрент Не дыши Dont Breathe бесплатно через .torrent фильм мультфильм сериал

Статистика раздачи
Размер:  6.14 GB   |    Зарегистрирован:  7 лет 2 месяца   |    .torrent скачан:  58 раз   |   
Раздают:  1  
 

Скачать Не дыши / Don't Breathe (Федерико Альварес / Federico Alvarez) [2016, США, ужасы, триллер, криминал, BDRip 720p] Dub (iTunes) + 2x VO + Sub Rus, Eng + Original Eng через torrent

 
 
Автор Сообщение

Galfimbul

avatar Galfimbul


Не дыши / Don't Breathe

Страна: США
Студия: Ghost House Pictures
Жанр: ужасы, триллер, криминал
Год выпуска: 2016
Продолжительность: 01:28:32

Перевод 1: Профессиональный (дублированный) iTunes
Перевод 2: Одноголосный закадровый Д. Есарев (ненормативная лексика)
Перевод 3: Одноголосный закадровый Евгений Солодухин
Cубтитры: русские (FULL), английские (FULL)
Оригинальная аудио дорожка: английская

Режиссер: Федерико Альварес / Federico Alvarez

В ролях: Стивен Лэнг, Джейн Леви, Дилан Миннетт, Дэниэл Дзоватто, Эмма Берковичи, Франциска Тёрёчик, Кристиан Сахиа, Катя Бокор, Сергей Онопко, Оливия Гиллис

Описание: Грабители забираются в дом одинокого слепого старика с целью украсть огромную сумму, которая, по слухам, спрятана где-то внутри. Казалось бы — что может быть проще, чем вынести деньги из дома практически беспомощного человека. Но они жестоко ошибаются: преследуемый становится преследователем. И тайна, которую он хранит, гораздо страшнее, чем обычные пенсионные накопления.

Доп. информация: Присутствует навигация по главам с BD.
За работу и предоставление аудио дорожки №3 особая благодарность Евгению Солодухину, он же SOLOD

Сэмпл: http://sendfile.su/1286260

Тип релиза: BDRip 720p
Контейнер: MKV
Видео кодек: H.264
Аудио кодек: AC-3, DTS
Видео: MPEG4/AVC, 1280x534p, 2.40:1, 23.976 (24000/1001) FPS, 5878 kb/s
Аудио 1: RUS / DUB, AC-3, 5.1, 48.0 kHz, 384 kb/s | дубляж
Аудио 2: RUS / VO, DTS, 5.1, 48.0 kHz, 1509 kb/s | любительский Д. Есарев
Аудио 3: RUS / VO, AC-3, 5.1, 48.0 kHz, 448 kb/s | любительский Е.Солодухин/Solod
Аудио 4: ENG / нет, DTS, 5.1, 48.0 kHz, 1509 kb/s | оригинал
Формат субтитров: softsub (SRT)
Релиз:
x264
x264 [info]: frame I:883 Avg QP:13.06 size:113420
x264 [info]: frame P:24722 Avg QP:14.32 size: 57683
x264 [info]: frame B:101763 Avg QP:16.01 size: 24596

Формат : Matroska
Версия формата : Version 2
Размер файла : 6,14 Гбайт
Продолжительность : 1 ч. 28 м.
Общий поток : 9921 Кбит/сек
Дата кодирования : UTC 2016-11-28 17:52:08
Программа кодирования : mkvmerge v7.6.0 ('Garden of Dreams') 32bit built on Feb 11 2015 00:18:47
Библиотека кодирования : libebml v1.3.1 + libmatroska v1.4.2

Видео
Идентификатор : 1
Формат : AVC
Формат/Информация : Advanced Video Codec
Профиль формата : [email protected]
Параметр CABAC формата : Да
Параметр ReFrames формата : 12 кадров
Идентификатор кодека : V_MPEG4/ISO/AVC
Продолжительность : 1 ч. 28 м.
Битрейт : 5874 Кбит/сек
Ширина : 1280 пикселей
Высота : 534 пикселя
Соотношение сторон : 2,40:1
Режим частоты кадров : Постоянный
Частота кадров : 23,976 (24000/1001) кадра/сек
Цветовое пространство : YUV
Субдискретизация насыщенности : 4:2:0
Битовая глубина : 8 бит
Тип развёртки : Прогрессивная
Бит/(Пиксели*Кадры) : 0.358
Размер потока : 3,63 Гбайт (59%)
Заголовок : Don't Breathe - Release for Rutracker from the LION
Библиотека кодирования : x264 core 148 r2721 72d53ab
Настройки программы : cabac=1 / ref=12 / deblock=1:-3:-3 / analyse=0x3:0x113 / me=umh / subme=10 / psy=1 / psy_rd=1.20:0.10 / mixed_ref=1 / me_range=24 / chroma_me=1 / trellis=2 / 8x8dct=1 / cqm=0 / deadzone=21,11 / fast_pskip=1 / chroma_qp_offset=-3 / threads=6 / lookahead_threads=1 / sliced_threads=0 / nr=0 / decimate=0 / interlaced=0 / bluray_compat=0 / constrained_intra=0 / bframes=9 / b_pyramid=2 / b_adapt=2 / b_bias=0 / direct=1 / weightb=1 / open_gop=0 / weightp=2 / keyint=250 / keyint_min=23 / scenecut=40 / intra_refresh=0 / rc_lookahead=40 / rc=crf / mbtree=0 / crf=16.2 / qcomp=0.68 / qpmin=0 / qpmax=69 / qpstep=4 / vbv_maxrate=62500 / vbv_bufsize=78125 / crf_max=0.0 / nal_hrd=none / filler=0 / ip_ratio=1.30 / pb_ratio=1.20 / aq=2:0.76
Default : Да
Forced : Нет
Statistics Tags Issue : mkvmerge v9.5.0 ('Quiet Fire') 32bit 2016-11-27 04:31:52 / mkvmerge v7.6.0 ('Garden of Dreams') 32bit built on Feb 11 2015 00:18:47 2016-11-28 17:52:08
FromStats_BitRate : 6067613
FromStats_Duration : 01:28:32.307000000
FromStats_FrameCount : 127368
FromStats_StreamSize : 4029128125

Аудио #1
Идентификатор : 2
Формат : AC-3
Формат/Информация : Audio Coding 3
Расширение режима : CM (complete main)
Параметр Endianness формата : Big
Идентификатор кодека : A_AC3
Продолжительность : 1 ч. 28 м.
Вид битрейта : Постоянный
Битрейт : 384 Кбит/сек
Каналы : 6 каналов
Расположение каналов : Front: L C R, Side: L R, LFE
Частота : 48,0 КГц
Частота кадров : 31,250 кадров/сек (1536 spf)
Битовая глубина : 16 бит
Метод сжатия : С потерями
Размер потока : 243 Мбайт (4%)
Заголовок : дубляж
Язык : Russian
Default : Да
Forced : Нет

Аудио #2
Идентификатор : 3
Формат : DTS
Формат/Информация : Digital Theater Systems
Режим : 16
Параметр Endianness формата : Big
Идентификатор кодека : A_DTS
Продолжительность : 1 ч. 28 м.
Вид битрейта : Постоянный
Битрейт : 1509 Кбит/сек
Каналы : 6 каналов
Расположение каналов : Front: L C R, Side: L R, LFE
Частота : 48,0 КГц
Частота кадров : 93,750 кадра/сек (512 spf)
Битовая глубина : 24 бит
Метод сжатия : С потерями
Размер потока : 956 Мбайт (15%)
Заголовок : любительский с цензурой
Язык : Russian
Default : Нет
Forced : Нет

Аудио #3
Идентификатор : 4
Формат : AC-3
Формат/Информация : Audio Coding 3
Расширение режима : CM (complete main)
Параметр Endianness формата : Big
Идентификатор кодека : A_AC3
Продолжительность : 1 ч. 28 м.
Вид битрейта : Постоянный
Битрейт : 448 Кбит/сек
Каналы : 6 каналов
Расположение каналов : Front: L C R, Side: L R, LFE
Частота : 48,0 КГц
Частота кадров : 31,250 кадров/сек (1536 spf)
Битовая глубина : 16 бит
Метод сжатия : С потерями
Размер потока : 284 Мбайт (5%)
Заголовок : любительский
Язык : Russian
Default : Нет
Forced : Нет

Аудио #4
Идентификатор : 5
Формат : DTS
Формат/Информация : Digital Theater Systems
Режим : 16
Параметр Endianness формата : Big
Идентификатор кодека : A_DTS
Продолжительность : 1 ч. 28 м.
Вид битрейта : Постоянный
Битрейт : 1509 Кбит/сек
Каналы : 6 каналов
Расположение каналов : Front: L C R, Side: L R, LFE
Частота : 48,0 КГц
Частота кадров : 93,750 кадра/сек (512 spf)
Битовая глубина : 24 бит
Метод сжатия : С потерями
Размер потока : 956 Мбайт (15%)
Заголовок : оригинал
Язык : English
Default : Нет
Forced : Нет

Текст #1
Идентификатор : 6
Формат : UTF-8
Идентификатор кодека : S_TEXT/UTF8
Идентификатор кодека/Информация : UTF-8 Plain Text
Заголовок : русские
Язык : Russian
Default : Нет
Forced : Нет

Текст #2
Идентификатор : 7
Формат : UTF-8
Идентификатор кодека : S_TEXT/UTF8
Идентификатор кодека/Информация : UTF-8 Plain Text
Заголовок : английские
Язык : English
Default : Нет
Forced : Нет

Меню
00:00:00.000 : en:00:00:00.000
00:03:33.462 : en:00:03:33.462
00:08:02.732 : en:00:08:02.732
00:14:05.177 : en:00:14:05.177
00:19:45.851 : en:00:19:45.851
00:24:50.029 : en:00:24:50.029
00:28:29.540 : en:00:28:29.540
00:33:33.094 : en:00:33:33.094
00:36:51.416 : en:00:36:51.416
00:41:04.295 : en:00:41:04.295
00:45:48.244 : en:00:45:48.244
00:51:52.400 : en:00:51:52.400
00:57:36.661 : en:00:57:36.661
01:03:46.239 : en:01:03:46.239
01:13:41.917 : en:01:13:41.917
01:21:54.701 : en:01:21:54.701
283
00:29:55,422 --> 00:29:56,631
Ладно, Богом клянусь...

284
00:33:16,289 --> 00:33:19,417
Он завалил Мани

285
00:33:25,799 --> 00:33:27,634
Ты в порядке?
Очень напугана прошу помоги

286
00:33:27,801 --> 00:33:30,679
Я в доме, а ты где?

287
00:33:31,596 --> 00:33:32,931
В шкафу

288
00:35:26,544 --> 00:35:28,546
Роки, ты в норме?

289
00:35:28,713 --> 00:35:30,799
Ты в норме?

290
00:35:30,965 --> 00:35:32,884
Может... Может, стоит
вызвать полицию,

291
00:35:33,051 --> 00:35:34,219
пока это не сделал он?
Внимание! Присутствует не нормативная лексика.

Внимание! AdBlock блокирует показ скриншотов, все вопросы к разработчикам )))
Трекер:  [ 14-Дек-2016 22:00 ]

  

Скачать .torrent

Размер .torrent файла 15 KB


Размер: 6.14 GB
Хэш (hash) релиза: 10f0031a54de1132cdb2b5482ce786cb5552c054
Подписка на обновления:

Торренты, похожие на Не дыши Dont Breathe скачать торрент

Форум Название Автор Размер S L Добавлен
Зарубежные фильмы до 2016 ·· Не дыши / Don't Breathe (Федерико Альварес / Federico Alvarez) [2016, США, ужасы, триллер, криминал, BDRip 720p] Dub (Blu-ray CEE) + Sub Rus, Eng, Ukr + Original Eng Galfimbul 63524037085.92 GB 0 0 1518507299

10:34

13-Фев-18

Зарубежные фильмы до 2016 ·· Не дыши / Don't Breathe (Федерико Альварес / Federico Alvarez) [2016, США, Ужасы, триллер, криминал, DVD5 (сжатый)] исх. R2, Dub + Sub Rus + Original Eng Galfimbul 46941777924.37 GB 0 0 1501142783

11:06

27-Июл-17

Зарубежные фильмы до 2016 ·· Не дыши / Don't Breathe (Федерико Альварес / Federico Alvarez) [2016, США, Ужасы, триллер, криминал, DVD9] R2 Dub + Sub Rus + Original Eng Galfimbul 60493045765.63 GB 0 0 1500827772

19:36

23-Июл-17

Зарубежные фильмы 2016-2019 (Новинки зарубежного кино) ·· Не дыши / Don't Breathe (Федерико Альварес / Federico Alvarez) [2016, США, ужасы, триллер, криминал, WEB-DLRip] Open Matte Galfimbul 15489433601.44 GB 0 0 1489137230

12:13

10-Мар-17

Зарубежные фильмы до 2016 ·· Не дыши / Don't Breathe (Федерико Альварес / Federico Alvarez) [2016, США, ужасы, триллер, криминал, BDRip 1080p] Dub (Blu-ray CEE) + Sub Rus, Eng, Ukr + Original Eng Galfimbul 99632227629.28 GB 0 0 1485104960

20:09

22-Янв-17

Зарубежные фильмы до 2016 ·· Не дыши / Don't Breathe (Федерико Альварес / Federico Alvarez) [2016, США, ужасы, триллер, криминал, BDRip 720p] Dub (Blu-ray CEE) + Sub Rus, Eng, Ukr + Original Eng Galfimbul 63495281875.91 GB 0 0 1485104954

20:09

22-Янв-17

Зарубежные фильмы 2016-2019 (Новинки зарубежного кино) ·· Не дыши / Don't Breathe (Федерико Альварес / Federico Alvarez) [2016, США, ужасы, триллер, криминал, BDRip] Dub + Original Eng + Sub (Rus, Eng) Galfimbul 18584950051.73 GB 0 0 1484234787

18:26

12-Янв-17

Зарубежные фильмы 2016-2019 (Новинки зарубежного кино) ·· Не дыши / Don't Breathe (Федерико Альварес / Federico Alvarez) [2016, США, ужасы, триллер, криминал, Blu Ray 1080p] Galfimbul 3242791218130.2 GB 0 0 1483737515

00:18

7-Янв-17

Зарубежные фильмы 2016-2019 (Новинки зарубежного кино) ·· Не дыши / Don't Breathe (Федерико Альварес / Federico Alvarez) [2016, США, ужасы, триллер, криминал, BDRip 1080p] Galfimbul 55490774785.17 GB 0 0 1483714486

17:54

6-Янв-17

Зарубежные фильмы до 2016 ·· Не дыши / Don't Breathe (Федерико Альварес / Federico Alvarez) [2016, США, ужасы, триллер, криминал, Blu-ray disc 1080p] [EUR] Dub + Sub Rus, Eng + Original Eng Galfimbul 3242791218130.2 GB 0 0 1483706884

15:48

6-Янв-17

Зарубежные фильмы 2016-2019 (Новинки зарубежного кино) ·· Не дыши / Don't Breathe (Федерико Альварес / Federico Alvarez) [2016, США, ужасы, триллер, криминал, BDRip-AVC] Dub + Original eng + Subs (Rus, Eng) Galfimbul 15796901991.47 GB 0 0 1481814088

18:01

15-Дек-16

Зарубежные фильмы 2016-2019 (Новинки зарубежного кино) ·· Не дыши / Don't Breathe (Федерико Альварес / Federico Alvarez) [2016, США, Ужасы, триллер, криминал, BDRip 1080p] iTunes Galfimbul 72974598656.8 GB 0 0 1479199587

11:46

15-Ноя-16

Зарубежные фильмы 2016-2019 (Новинки зарубежного кино) ·· Не дыши / Don't Breathe (Федерико Альварес / Federico Alvarez) [2016, США, Ужасы, триллер, криминал, BDRip 720p] iTunes Galfimbul 49487650344.61 GB 0 0 1479195697

10:41

15-Ноя-16

Зарубежные фильмы 2016-2019 (Новинки зарубежного кино) ·· Не дыши / Don't Breathe (Федерико Альварес / Federico Alvarez) [2016, США, Ужасы, триллер, криминал, HDRip] iTunes Galfimbul 14674022401.37 GB 0 0 1479183062

07:11

15-Ноя-16

Зарубежные фильмы 2016-2019 (Новинки зарубежного кино) ·· Не дыши / Don't Breathe (Федерико Альварес / Federico Alvarez) [2016, США, Ужасы, триллер, криминал, WEB-DLRip] Dub (iTunes) Galfimbul 15638507521.46 GB 0 0 1478728697

00:58

10-Ноя-16

Зарубежные фильмы 2016-2019 (Новинки зарубежного кино) ·· Не дыши / Don't Breathe (Федерико Альварес / Federico Alvarez) [2016, США, Ужасы, триллер, криминал, WEB-DLRip] iTunes Galfimbul 14689894401.37 GB 0 0 1478724512

23:48

9-Ноя-16

Зарубежные фильмы 2016-2019 (Новинки зарубежного кино) ·· Не дыши / Don't Breathe (Федерико Альварес / Federico Alvarez) [2016, США, Ужасы, триллер, криминал, WEB-DL 720p] Line Galfimbul 30620490472.85 GB 0 0 1478650462

03:14

9-Ноя-16

Зарубежные фильмы 2016-2019 (Новинки зарубежного кино) ·· Не дыши / Don't Breathe (Федерико Альварес / Federico Alvarez) [2016, США, Ужасы, триллер, криминал, WEB-DL 1080p] Line Galfimbul 34238099933.19 GB 0 0 1478650458

03:14

9-Ноя-16

Зарубежные фильмы 2016-2019 (Новинки зарубежного кино) ·· Не дыши / Don't Breathe (Федерико Альварес / Federico Alvarez) [2016, США, Ужасы, триллер, криминал, WEB-DLRip] Line Galfimbul 14620938241.36 GB 0 0 1478650446

03:14

9-Ноя-16

Еще никто не оставлял запись к записи скачать торрент Не дыши Dont Breathe . Будь первым!

!Обратная связь