Скачать через торрент Хуже, чем ложь Misconduct Фильм бесплатно в хорошем качестве torrent

Скачивайте на UnionPeer.org фильмы через торрент без регистрации. Новинки кино в хорошем качестве через торрент. На UnionPeer.org можно скачать через торрент фильмы 2014 и 2015 годов. Самые новые фильмы.

Скачать торрент Хуже, чем ложь Misconduct бесплатно через .torrent фильм мультфильм сериал

Статистика раздачи
Размер:  6.54 GB   |    Зарегистрирован:  7 лет 2 месяца   |    .torrent скачан:  637 раз   |   
Раздают:  1  
 

Скачать Хуже, чем ложь / Misconduct (Шинтаро Шимосава / Shintaro Shimosawa) [2016, США, Триллер, Драма, BDRip 720p] iTunes через torrent

 
 
Автор Сообщение

Galfimbul

avatar Galfimbul


Хуже, чем ложь /Misconduct

Год выхода: 2016
Жанр: триллер, драма
Режиссер: Шинтаро Шимосава
В ролях: Элис Ив, Малин Акерман, Джулия Стайлз, Аль Пачино, Глен Пауэлл, Энтони Хопкинс, Джош Дюамель, Ли Бён Хон, Крис Маркетт, Шона Гастян

О фильме:
Когда амбициозный молодой юрист берется за большое дело против влиятельного и безжалостного исполнительного директора крупной фармацевтической компании, он оказывается втянут в мир шантажа и коррупции.


Страна: США
Студия: Mike and Marty Productions
Продолжительность: 01:45:54
Перевод: Дублированный | iTunes

Файл
Кодек: MPEG4 Video (H264)
Качество: BDRip 720p | iTunes
Видео: 1280x536, 6940 Kbps, 23.976fp
Звук:
Аудио #1: 48.0 Khz, AC3, 5.1, 384 Kbps | Русский
Аудио #2: 48.0 Khz, DTS, 5.1, 1510 Kbps | Английский
Субтитры: Английские
Общее
Уникальный идентификатор : 202359490135288053960227112992479737753 (0x983D05291749EEFFACD0B532FEC17799)
Полное имя : Misconduct.2016.BDRip.720p.mkv
Формат : Matroska
Версия формата : Version 2
Размер файла : 6,54 Гбайт
Продолжительность : 1 ч. 45 м.
Общий поток : 8835 Кбит/сек
Название фильма : Misconduct.2016.BDRip.720p
Дата кодирования : UTC 2016-12-14 19:40:15
Программа кодирования : mkvmerge v4.0.0 ('The Stars were mine') сборка от Jun 6 2010 16:18:42
Библиотека кодирования : libebml v1.0.0 + libmatroska v1.0.0

Видео
Идентификатор : 1
Формат : AVC
Формат/Информация : Advanced Video Codec
Профиль формата : [email protected]
Параметр CABAC формата : Да
Параметр ReFrames формата : 7 кадров
Идентификатор кодека : V_MPEG4/ISO/AVC
Продолжительность : 1 ч. 45 м.
Битрейт : 6940 Кбит/сек
Ширина : 1280 пикселей
Высота : 536 пикселей
Соотношение сторон : 2,40:1
Режим частоты кадров : Постоянный
Частота кадров : 23,976 (24000/1001) кадра/сек
Цветовое пространство : YUV
Субдискретизация насыщенности : 4:2:0
Битовая глубина : 8 бит
Тип развёртки : Прогрессивная
Бит/(Пиксели*Кадры) : 0.422
Размер потока : 5,01 Гбайт (77%)
Библиотека кодирования : x264 core 142 r2431+42 c69a006 tMod [8-bit@all X86_64]
Настройки программы : cabac=1 / ref=7 / deblock=1:-3:-3 / analyse=0x3:0x133 / me=umh / subme=10 / psy=1 / fade_compensate=0.00 / psy_rd=1.00:1.00 / mixed_ref=1 / me_range=36 / chroma_me=1 / trellis=2 / 8x8dct=1 / cqm=0 / deadzone=21,11 / fast_pskip=0 / chroma_qp_offset=-4 / threads=16 / lookahead_threads=2 / sliced_threads=0 / nr=0 / decimate=0 / interlaced=0 / bluray_compat=0 / constrained_intra=0 / fgo=0 / bframes=7 / b_pyramid=2 / b_adapt=2 / b_bias=0 / direct=3 / weightb=1 / open_gop=0 / weightp=2 / keyint=240 / keyint_min=23 / scenecut=40 / intra_refresh=0 / rc_lookahead=150 / rc=2pass / mbtree=0 / bitrate=6940 / ratetol=1.0 / qcomp=0.60 / qpmin=0:0:0 / qpmax=69:69:69 / qpstep=4 / cplxblur=20.0 / qblur=0.5 / vbv_maxrate=40000 / vbv_bufsize=30000 / nal_hrd=none / filler=0 / ip_ratio=1.20 / pb_ratio=1.30 / aq=2:0.68 / aq-sensitivity=10.00 / aq-factor=1.00:1.00:1.00 / aq2=0 / aq3=0
Язык : English
Default : Нет
Forced : Нет
Цветовой диапазон : Limited
Основные цвета : BT.709
Характеристики трансфера : BT.709
Коэффициенты матрицы : BT.709

Аудио #1
Идентификатор : 2
Формат : AC-3
Формат/Информация : Audio Coding 3
Расширение режима : CM (complete main)
Параметр Endianness формата : Big
Идентификатор кодека : A_AC3
Продолжительность : 1 ч. 45 м.
Вид битрейта : Постоянный
Битрейт : 384 Кбит/сек
Каналы : 6 каналов
Расположение каналов : Front: L C R, Side: L R, LFE
Частота : 48,0 КГц
Частота кадров : 31,250 кадров/сек (1536 spf)
Битовая глубина : 16 бит
Метод сжатия : С потерями
Размер потока : 291 Мбайт (4%)
Заголовок : DUB | iTunes
Язык : Russian
Default : Да
Forced : Да

Аудио #2
Идентификатор : 3
Формат : DTS
Формат/Информация : Digital Theater Systems
Режим : 16
Параметр Endianness формата : Big
Идентификатор кодека : A_DTS
Продолжительность : 1 ч. 45 м.
Вид битрейта : Постоянный
Битрейт : 1509 Кбит/сек
Каналы : 6 каналов
Расположение каналов : Front: L C R, Side: L R, LFE
Частота : 48,0 КГц
Частота кадров : 93,750 кадра/сек (512 spf)
Битовая глубина : 24 бит
Метод сжатия : С потерями
Задержка видео : 11 мс.
Размер потока : 1,12 Гбайт (17%)
Язык : English
Default : Нет
Forced : Нет

Текст
Идентификатор : 4
Формат : UTF-8
Идентификатор кодека : S_TEXT/UTF8
Идентификатор кодека/Информация : UTF-8 Plain Text
Язык : English
Default : Нет
Forced : Нет

Меню
00:00:00.000 : en:Chapter 1
00:09:31.946 : en:Chapter 2
00:15:35.810 : en:Chapter 3
00:25:51.925 : en:Chapter 4
00:34:03.583 : en:Chapter 5
00:37:49.809 : en:Chapter 6
00:44:09.856 : en:Chapter 7
00:50:30.694 : en:Chapter 8
00:58:21.540 : en:Chapter 9
01:03:56.166 : en:Chapter 10
01:11:36.751 : en:Chapter 11
01:18:43.052 : en:Chapter 12
01:24:04.206 : en:Chapter 13
01:29:02.796 : en:Chapter 14
01:35:34.270 : en:Chapter 15
01:37:01.274 : en:Chapter 16


Внимание! AdBlock блокирует показ скриншотов, все вопросы к разработчикам )))
Трекер:  [ 14-Дек-2016 23:00 ]

  

Скачать .torrent

Размер .torrent файла 33 KB


Размер: 6.54 GB
Хэш (hash) релиза: eb75a8636df5009ae29e2d8344a3651b637ef719
Подписка на обновления:

Торренты, похожие на Хуже, чем ложь Misconduct скачать торрент

Форум Название Автор Размер S L Добавлен
Зарубежные фильмы до 2016 ·· Хуже, чем ложь / Misconduct (Синтаро Симосава / Shintaro Shimosawa) [2016, США, Триллер, драма, криминал, детектив, DVD5] R5 Dub Galfimbul 45145313284.2 GB 0 0 1525806130

22:02

8-Май-18

Зарубежные фильмы 2016-2019 (Новинки зарубежного кино) ·· Хуже, чем ложь / Misconduct (Шинтаро Шимосава / Shintaro Shimosawa) [2016, США, Триллер, драма, BDRip] Dub (iTunes) Galfimbul 15200958841.42 GB 0 0 1481912186

21:16

16-Дек-16

Зарубежные фильмы 2016-2019 (Новинки зарубежного кино) ·· Хуже, чем ложь / Misconduct (Шинтаро Шимосава / Shintaro Shimosawa) [2016, США, Триллер, драма, HDRip] Dub (iTunes) Galfimbul 783368192747 MB 0 0 1481909859

20:37

16-Дек-16

Зарубежные фильмы 2016-2019 (Новинки зарубежного кино) ·· Хуже, чем ложь / Misconduct (Шинтаро Шимосава / Shintaro Shimosawa) [2016, США, Триллер, Драма, BDRip 1080p] iTunes Galfimbul 99192050589.24 GB 0 0 1481746253

23:10

14-Дек-16

Зарубежные фильмы 2016-2019 (Новинки зарубежного кино) ·· Хуже, чем ложь / Misconduct (Шинтаро Шимосава / Shintaro Shimosawa) [2016, США, Триллер, Драма, HDRip] DVO + Original Galfimbul 15314206721.43 GB 0 0 1460969198

11:46

18-Апр-16

Зарубежные фильмы 2016-2019 (Новинки зарубежного кино) ·· Хуже, чем ложь / Misconduct (Шинтаро Шимосава / Shintaro Shimosawa) [2016, США, триллер, драма, BDRip 1080p] Galfimbul 99277311789.25 GB 0 0 1460569464

20:44

13-Апр-16

Зарубежные фильмы до 2016 ·· Хуже, чем ложь / Misconduct (Шинтаро Шимосава / Shintaro Shimosawa) [2016, США, триллер, драма, WEB-DL 720p] DVO (den904 & DeadSno) + Sub Eng + Original Eng Galfimbul 36349814413.39 GB 0 0 1455090884

10:54

10-Фев-16

Зарубежные фильмы 2016-2019 (Новинки зарубежного кино) ·· Хуже, чем ложь / Misconduct (Шинтаро Шимосава / Shintaro Shimosawa) [2016, США, Триллер, драма, WEB-DLRip] DVO (den904 & DeadSno) Galfimbul 784207872748 MB 0 0 1454874768

22:52

7-Фев-16

Зарубежные фильмы 2016-2019 (Новинки зарубежного кино) ·· Хуже, чем ложь / Misconduct (Шинтаро Шимосава / Shintaro Shimosawa) [2016, США, Триллер, Драма, WEB-DLRip] DVO Galfimbul 15752581121.47 GB 0 0 1454864422

20:00

7-Фев-16

Еще никто не оставлял запись к записи скачать торрент Хуже, чем ложь Misconduct . Будь первым!

!Обратная связь