Скачать через торрент Последствия Aftermath Фильм бесплатно в хорошем качестве torrent

Скачивайте на UnionPeer.org фильмы через торрент без регистрации. Новинки кино в хорошем качестве через торрент. На UnionPeer.org можно скачать через торрент фильмы 2014 и 2015 годов. Самые новые фильмы.

Скачать торрент Последствия Aftermath бесплатно через .torrent фильм мультфильм сериал

Статистика раздачи
Размер:  5.38 GB   |    Зарегистрирован:  7 лет 2 месяца   |    .torrent скачан:  47 раз   |   
Раздают:  1  
   
 
Автор Сообщение

Galfimbul

avatar Galfimbul


Последствия / Aftermath
Год выпуска: 2016
Страна: Канада
Жанр: фантастика
Продолжительность: 00:45:00

Перевод: Профессиональный (многоголосый закадровый) - Кравец

Режиссёр: Кааре Эндрюс, Джеймс Маршалл, Эйприл Маллен

В ролях: Джеймс Таппер, Энн Хеч, Леви Миден, Тейлор Хиксон, Джулия Сара Стоун, Сара Циолковски, Митчелл Каммен, Джейсон Грей, Мэдисон Смит, Патти Ким

Описание: Главные герои — многодетное семейство Коупленд: супруги Карен и Джошуа и их дети — практичная и рассудительная Дана, романтичная Брианна и Мэтт. События происходят во время апокалипсиса. Семья Коупленд ведет борьбу за выживание в чудовищных условиях: штормы сменяются землетрясениями и метеоритными дождями, а на планете появляются сверхъестественные существа…
<a href="tracker.php?f=189,2366,842,235&nm=Aftermath" class="postLink">Ссылка на предыдущие и альтернативные раздачи</a> / Сэмпл
Релиз от:
Качество: WEB-DLRip
Формат: AVI
Видео: 720x400 (16:9), 23.976 fps, XviD build 73, 1305 Kbps, 0.18 bit/pixel
Аудио: 48 kHz, AC3 Dolby Digital, 2 ch, 192 Kbps
Субтитры: Отсутствуют

Реклама: Полностью отсутствует
General
Complete name : Downloads\Aftermath.2016.S01.WEB-DLRip.Rus.Generalfilm
Format : AVI
Format/Info : Audio Video Interleave
File size : 460 MiB
Duration : 42mn 39s
Overall bit rate : 1 507 Kbps
Writing application : Lavf55.19.104
Video #0
ID : 0
Format : MPEG-4 Visual
Format profile : Advanced Simple@L5
Format settings, BVOP : 1
Format settings, QPel : No
Format settings, GMC : No warppoints
Format settings, Matrix : Default (MPEG)
Codec ID : XVID
Codec ID/Hint : XviD
Duration : 42mn 39s
Bit rate : 1 305 Kbps
Width : 720 pixels
Height : 400 pixels
Display aspect ratio : 16:9
Frame rate : 23.976 fps
Color space : YUV
Chroma subsampling : 4:2:0
Bit depth : 8 bits
Scan type : Progressive
Compression mode : Lossy
Bits/(Pixel*Frame) : 0.189
Stream size : 398 MiB (87%)
Writing library : XviD 73
Audio #1
ID : 1
Format : AC-3
Format/Info : Audio Coding 3
Mode extension : CM (complete main)
Format settings, Endianness : Big
Codec ID : 2000
Duration : 42mn 39s
Bit rate mode : Constant
Bit rate : 192 Kbps
Channel(s) : 2 channels
Channel positions : Front: L R
Sampling rate : 48.0 KHz
Bit depth : 16 bits
Compression mode : Lossy
Stream size : 58.6 MiB (13%)
Alignment : Aligned on interleaves
Interleave, duration : 32 ms (0.77 video frame)


Внимание! AdBlock блокирует показ скриншотов, все вопросы к разработчикам )))
Трекер:  [ 16-Дек-2016 18:00 ]

  

Скачать .torrent

Размер .torrent файла 15 KB


Размер: 5.38 GB
Хэш (hash) релиза: cb492710ad9d6b170270d6b4fdd2b21b41c6c907
Подписка на обновления:

Еще никто не оставлял запись к записи скачать торрент Последствия Aftermath . Будь первым!

!Обратная связь