Fresh Booty UnionPeer.org HD

2015, 2014 UnionPeer.org

.

11.57 GB   |    :  9    |    .torrent :  235    |   
1  
   
Timeweb Many GEOs Sprinthost
...
 

Galfimbul ghost

avatar Galfimbul ghost


Fresh Booty /



: 2010 | : Big Ass, Anal, Interracial, Gonzo
: L. T. | : Elegant Angel | : 200 min

:
Scene 1. Michelle Malone, L.T.
Scene 2. Miss Raquel, L.T.
Scene 3. GizelleXXX, L.T.
Scene 4. Sarena Love, L.T.
Scene 5. Bethany Benz, Kaylynn, L.T.

:
It doesn't get any better than this. The freshest, most curvaceous asses in porn, assembled here for your delectation in Fresh Booty. Enjoy Miss Raquel, Michelle Malone, Gizelle XXX, Sarena Love, Kaylynn, and Bethany Benz.

: 1080p | : MP4
Video: AVC, 1920x1080, 8 Mbps, 29.97 fps | Audio: AAC, 256 Kbps, 2 channels, 44.1 KHz

:

General
Complete name : W:\Fresh.Booty.XXX.2010.1080p.WEB-DL.MP4\fb-01.mp4
Format : MPEG-4
Format profile : Base Media / Version 2
Codec ID : mp42
File size : 2.11 GiB
Duration : 36mn 37s
Overall bit rate : 8 240 Kbps
Encoded date : UTC 2010-11-03 10:15:03
Tagged date : UTC 2010-11-03 10:19:44

Video
Format : AVC
Format/Info : Advanced Video Codec
Format profile : Baseline@L4.0
Format settings, CABAC : No
Format settings, ReFrames : 2 frames
Codec ID : avc1
Codec ID/Info : Advanced Video Coding
Duration : 36mn 37s
Bit rate mode : Variable
Bit rate : 7 981 Kbps
Width : 1 920 pixels
Height : 1 080 pixels
Display aspect ratio : 16/9
Frame rate mode : Constant
Frame rate : 29.970 fps
Resolution : 24 bits
Colorimetry : 4:2:0
Scan type : Progressive
Bits/(Pixel*Frame) : 0.128
Stream size : 2.04 GiB (97%)
Language : English
Encoded date : UTC 2010-11-03 10:15:00
Tagged date : UTC 2010-11-03 10:19:44

Audio
Format : AAC
Format/Info : Advanced Audio Codec
Format version : Version 4
Format profile : LC
Format settings, SBR : No
Codec ID : 40
Duration : 36mn 37s
Bit rate mode : Constant
Bit rate : 256 Kbps
Channel(s) : 2 channels
Channel positions : L R
Sampling rate : 44.1 KHz
Resolution : 16 bits
Stream size : 67.1 MiB (3%)
Language : English
Encoded date : UTC 2010-11-03 10:15:00
Tagged date : UTC 2010-11-03 10:19:44

General
Complete name : W:\Fresh.Booty.XXX.2010.1080p.WEB-DL.MP4\fb-02.mp4
Format : MPEG-4
Format profile : Base Media / Version 2
Codec ID : mp42
File size : 1.99 GiB
Duration : 34mn 21s
Overall bit rate : 8 274 Kbps
Encoded date : UTC 2010-11-03 13:05:50
Tagged date : UTC 2010-11-03 13:10:27

Video
Format : AVC
Format/Info : Advanced Video Codec
Format profile : Baseline@L4.0
Format settings, CABAC : No
Format settings, ReFrames : 2 frames
Codec ID : avc1
Codec ID/Info : Advanced Video Coding
Duration : 34mn 21s
Bit rate mode : Variable
Bit rate : 8 014 Kbps
Width : 1 920 pixels
Height : 1 080 pixels
Display aspect ratio : 16/9
Frame rate mode : Constant
Frame rate : 29.970 fps
Resolution : 24 bits
Colorimetry : 4:2:0
Scan type : Progressive
Bits/(Pixel*Frame) : 0.129
Stream size : 1.92 GiB (97%)
Language : English
Encoded date : UTC 2010-11-03 13:05:47
Tagged date : UTC 2010-11-03 13:10:27

Audio
Format : AAC
Format/Info : Advanced Audio Codec
Format version : Version 4
Format profile : LC
Format settings, SBR : No
Codec ID : 40
Duration : 34mn 21s
Bit rate mode : Constant
Bit rate : 256 Kbps
Channel(s) : 2 channels
Channel positions : L R
Sampling rate : 44.1 KHz
Resolution : 16 bits
Stream size : 62.9 MiB (3%)
Language : English
Encoded date : UTC 2010-11-03 13:05:47
Tagged date : UTC 2010-11-03 13:10:27

General
Complete name : W:\Fresh.Booty.XXX.2010.1080p.WEB-DL.MP4\fb-03.mp4
Format : MPEG-4
Format profile : Base Media / Version 2
Codec ID : mp42
File size : 1.73 GiB
Duration : 29mn 59s
Overall bit rate : 8 269 Kbps
Encoded date : UTC 2010-11-03 19:05:30
Tagged date : UTC 2010-11-03 19:10:06

Video
Format : AVC
Format/Info : Advanced Video Codec
Format profile : Baseline@L4.0
Format settings, CABAC : No
Format settings, ReFrames : 2 frames
Codec ID : avc1
Codec ID/Info : Advanced Video Coding
Duration : 29mn 59s
Bit rate mode : Variable
Bit rate : 8 009 Kbps
Width : 1 920 pixels
Height : 1 080 pixels
Display aspect ratio : 16/9
Frame rate mode : Constant
Frame rate : 29.970 fps
Resolution : 24 bits
Colorimetry : 4:2:0
Scan type : Progressive
Bits/(Pixel*Frame) : 0.129
Stream size : 1.68 GiB (97%)
Language : English
Encoded date : UTC 2010-11-03 19:05:27
Tagged date : UTC 2010-11-03 19:10:06

Audio
Format : AAC
Format/Info : Advanced Audio Codec
Format version : Version 4
Format profile : LC
Format settings, SBR : No
Codec ID : 40
Duration : 29mn 59s
Bit rate mode : Constant
Bit rate : 256 Kbps
Channel(s) : 2 channels
Channel positions : L R
Sampling rate : 44.1 KHz
Resolution : 16 bits
Stream size : 54.9 MiB (3%)
Language : English
Encoded date : UTC 2010-11-03 19:05:27
Tagged date : UTC 2010-11-03 19:10:06

General
Complete name : W:\Fresh.Booty.XXX.2010.1080p.WEB-DL.MP4\fb-04.mp4
Format : MPEG-4
Format profile : Base Media / Version 2
Codec ID : mp42
File size : 2.04 GiB
Duration : 35mn 22s
Overall bit rate : 8 264 Kbps
Encoded date : UTC 2010-11-03 16:15:59
Tagged date : UTC 2010-11-03 16:20:58

Video
Format : AVC
Format/Info : Advanced Video Codec
Format profile : Baseline@L4.0
Format settings, CABAC : No
Format settings, ReFrames : 2 frames
Codec ID : avc1
Codec ID/Info : Advanced Video Coding
Duration : 35mn 22s
Bit rate mode : Variable
Bit rate : 8 004 Kbps
Width : 1 920 pixels
Height : 1 080 pixels
Display aspect ratio : 16/9
Frame rate mode : Constant
Frame rate : 29.970 fps
Resolution : 24 bits
Colorimetry : 4:2:0
Scan type : Progressive
Bits/(Pixel*Frame) : 0.129
Stream size : 1.98 GiB (97%)
Language : English
Encoded date : UTC 2010-11-03 16:15:56
Tagged date : UTC 2010-11-03 16:20:58

Audio
Format : AAC
Format/Info : Advanced Audio Codec
Format version : Version 4
Format profile : LC
Format settings, SBR : No
Codec ID : 40
Duration : 35mn 22s
Bit rate mode : Constant
Bit rate : 256 Kbps
Channel(s) : 2 channels
Channel positions : L R
Sampling rate : 44.1 KHz
Resolution : 16 bits
Stream size : 64.8 MiB (3%)
Language : English
Encoded date : UTC 2010-11-03 16:15:56
Tagged date : UTC 2010-11-03 16:20:58

General
Complete name : W:\Fresh.Booty.XXX.2010.1080p.WEB-DL.MP4\fb-05.mp4
Format : MPEG-4
Format profile : Base Media / Version 2
Codec ID : mp42
File size : 3.70 GiB
Duration : 1h 4mn
Overall bit rate : 8 262 Kbps
Encoded date : UTC 2010-11-04 00:44:11
Tagged date : UTC 2010-11-04 00:54:06

Video
Format : AVC
Format/Info : Advanced Video Codec
Format profile : Baseline@L4.0
Format settings, CABAC : No
Format settings, ReFrames : 2 frames
Codec ID : avc1
Codec ID/Info : Advanced Video Coding
Duration : 1h 4mn
Bit rate mode : Variable
Bit rate : 8 002 Kbps
Width : 1 920 pixels
Height : 1 080 pixels
Display aspect ratio : 16/9
Frame rate mode : Constant
Frame rate : 29.970 fps
Resolution : 24 bits
Colorimetry : 4:2:0
Scan type : Progressive
Bits/(Pixel*Frame) : 0.129
Stream size : 3.58 GiB (97%)
Language : English
Encoded date : UTC 2010-11-04 00:44:05
Tagged date : UTC 2010-11-04 00:54:06

Audio
Format : AAC
Format/Info : Advanced Audio Codec
Format version : Version 4
Format profile : LC
Format settings, SBR : No
Codec ID : 40
Duration : 1h 4mn
Bit rate mode : Constant
Bit rate : 256 Kbps
Channel(s) : 2 channels
Channel positions : L R
Sampling rate : 44.1 KHz
Resolution : 16 bits
Stream size : 117 MiB (3%)
Language : English
Encoded date : UTC 2010-11-04 00:44:05
Tagged date : UTC 2010-11-04 00:54:06


! AdBlock , )))
 ·  , , FAQ-
:  [ 02--2011 02:11 ]

  

.torrent

.torrent 58 KB


: 11.57 GB
(hash) : fce2425b551dcd9544345ce1aff6ea345ef16468
··
...
Superjob
dpd RU

Himurasan

Fresh Booty

!