Girl Crush 2 2 UnionPeer.org HD

2015, 2014 UnionPeer.org

.

10.3 GB   |    :  9    |    .torrent :  186    |   
1  
   
Timeweb Many GEOs Sprinthost
...
 

Galfimbul ghost

avatar Galfimbul ghost


Girl Crush 2 / 2



: 2010 | : Lesbian, All Girl
: Mason | : Elegant Angel | : 187 min

:
Scene 1. Georgia Jones, Kristina Rose
Scene 2. Andy San Dimas, Lily Labeau
Scene 3. Allie Haze, Chloe Cane
Scene 4. Hayden Winters, Karlie Montana

:
There are no rules, and no expectations. Just real emotions as two beautiful girls bring each other to orgasm. Just real sex with girls who love girls.

: 1080p | : MP4
Video: AVC, 1920x1080, 8000 Kbps, 29.97 fps | Audio: AAC, 256 Kbps, 2 channels, 44.1 KHz

:

General
Complete name : W:\Girl.Crush.2.XXX.2010.1080p.WEB-DL.MP4\gc2-scene01.mp4
Format : MPEG-4
Format profile : Base Media / Version 2
Codec ID : mp42
File size : 2.52 GiB
Duration : 43mn 47s
Overall bit rate : 8 242 Kbps
Encoded date : UTC 2011-02-15 22:12:42
Tagged date : UTC 2011-02-15 22:16:47

Video
Format : AVC
Format/Info : Advanced Video Codec
Format profile : Baseline@L4.0
Format settings, CABAC : No
Format settings, ReFrames : 2 frames
Codec ID : avc1
Codec ID/Info : Advanced Video Coding
Duration : 43mn 47s
Bit rate mode : Variable
Bit rate : 7 982 Kbps
Width : 1 920 pixels
Height : 1 080 pixels
Display aspect ratio : 16/9
Frame rate mode : Constant
Frame rate : 29.970 fps
Resolution : 24 bits
Colorimetry : 4:2:0
Scan type : Progressive
Bits/(Pixel*Frame) : 0.128
Stream size : 2.44 GiB (97%)
Language : English
Encoded date : UTC 2011-02-15 22:12:40
Tagged date : UTC 2011-02-15 22:16:47

Audio
Format : AAC
Format/Info : Advanced Audio Codec
Format version : Version 4
Format profile : LC
Format settings, SBR : No
Codec ID : 40
Duration : 43mn 47s
Bit rate mode : Constant
Bit rate : 256 Kbps
Channel(s) : 2 channels
Channel positions : L R
Sampling rate : 44.1 KHz
Resolution : 16 bits
Stream size : 80.2 MiB (3%)
Language : English
Encoded date : UTC 2011-02-15 22:12:40
Tagged date : UTC 2011-02-15 22:16:47

General
Complete name : W:\Girl.Crush.2.XXX.2010.1080p.WEB-DL.MP4\gc2-scene02.mp4
Format : MPEG-4
Format profile : Base Media / Version 2
Codec ID : mp42
File size : 2.38 GiB
Duration : 41mn 19s
Overall bit rate : 8 251 Kbps
Encoded date : UTC 2011-02-16 01:26:33
Tagged date : UTC 2011-02-16 01:30:24

Video
Format : AVC
Format/Info : Advanced Video Codec
Format profile : Baseline@L4.0
Format settings, CABAC : No
Format settings, ReFrames : 2 frames
Codec ID : avc1
Codec ID/Info : Advanced Video Coding
Duration : 41mn 19s
Bit rate mode : Variable
Bit rate : 7 991 Kbps
Width : 1 920 pixels
Height : 1 080 pixels
Display aspect ratio : 16/9
Frame rate mode : Constant
Frame rate : 29.970 fps
Resolution : 24 bits
Colorimetry : 4:2:0
Scan type : Progressive
Bits/(Pixel*Frame) : 0.129
Stream size : 2.31 GiB (97%)
Language : English
Encoded date : UTC 2011-02-16 01:26:31
Tagged date : UTC 2011-02-16 01:30:24

Audio
Format : AAC
Format/Info : Advanced Audio Codec
Format version : Version 4
Format profile : LC
Format settings, SBR : No
Codec ID : 40
Duration : 41mn 19s
Bit rate mode : Constant
Bit rate : 256 Kbps
Channel(s) : 2 channels
Channel positions : L R
Sampling rate : 44.1 KHz
Resolution : 16 bits
Stream size : 75.7 MiB (3%)
Language : English
Encoded date : UTC 2011-02-16 01:26:31
Tagged date : UTC 2011-02-16 01:30:24

General
Complete name : W:\Girl.Crush.2.XXX.2010.1080p.WEB-DL.MP4\gc2-scene03.mp4
Format : MPEG-4
Format profile : Base Media / Version 2
Codec ID : mp42
File size : 2.65 GiB
Duration : 45mn 50s
Overall bit rate : 8 265 Kbps
Encoded date : UTC 2011-02-15 23:54:36
Tagged date : UTC 2011-02-15 23:58:57

Video
Format : AVC
Format/Info : Advanced Video Codec
Format profile : Baseline@L4.0
Format settings, CABAC : No
Format settings, ReFrames : 2 frames
Codec ID : avc1
Codec ID/Info : Advanced Video Coding
Duration : 45mn 50s
Bit rate mode : Variable
Bit rate : 8 005 Kbps
Width : 1 920 pixels
Height : 1 080 pixels
Display aspect ratio : 16/9
Frame rate mode : Constant
Frame rate : 29.970 fps
Resolution : 24 bits
Colorimetry : 4:2:0
Scan type : Progressive
Bits/(Pixel*Frame) : 0.129
Stream size : 2.56 GiB (97%)
Language : English
Encoded date : UTC 2011-02-15 23:54:34
Tagged date : UTC 2011-02-15 23:58:57

Audio
Format : AAC
Format/Info : Advanced Audio Codec
Format version : Version 4
Format profile : LC
Format settings, SBR : No
Codec ID : 40
Duration : 45mn 50s
Bit rate mode : Constant
Bit rate : 256 Kbps
Channel(s) : 2 channels
Channel positions : L R
Sampling rate : 44.1 KHz
Resolution : 16 bits
Stream size : 83.9 MiB (3%)
Language : English
Encoded date : UTC 2011-02-15 23:54:34
Tagged date : UTC 2011-02-15 23:58:57

General
Complete name : W:\Girl.Crush.2.XXX.2010.1080p.WEB-DL.MP4\gc2-scene04.mp4
Format : MPEG-4
Format profile : Base Media / Version 2
Codec ID : mp42
File size : 2.62 GiB
Duration : 45mn 32s
Overall bit rate : 8 248 Kbps
Encoded date : UTC 2011-02-16 03:09:11
Tagged date : UTC 2011-02-16 03:13:26

Video
Format : AVC
Format/Info : Advanced Video Codec
Format profile : Baseline@L4.0
Format settings, CABAC : No
Format settings, ReFrames : 2 frames
Codec ID : avc1
Codec ID/Info : Advanced Video Coding
Duration : 45mn 32s
Bit rate mode : Variable
Bit rate : 7 989 Kbps
Width : 1 920 pixels
Height : 1 080 pixels
Display aspect ratio : 16/9
Frame rate mode : Constant
Frame rate : 29.970 fps
Resolution : 24 bits
Colorimetry : 4:2:0
Scan type : Progressive
Bits/(Pixel*Frame) : 0.129
Stream size : 2.54 GiB (97%)
Language : English
Encoded date : UTC 2011-02-16 03:09:09
Tagged date : UTC 2011-02-16 03:13:26

Audio
Format : AAC
Format/Info : Advanced Audio Codec
Format version : Version 4
Format profile : LC
Format settings, SBR : No
Codec ID : 40
Duration : 45mn 32s
Bit rate mode : Constant
Bit rate : 256 Kbps
Channel(s) : 2 channels
Channel positions : L R
Sampling rate : 44.1 KHz
Resolution : 16 bits
Stream size : 83.4 MiB (3%)
Language : English
Encoded date : UTC 2011-02-16 03:09:09
Tagged date : UTC 2011-02-16 03:13:26

General
Complete name : W:\Girl.Crush.2.XXX.2010.1080p.WEB-DL.MP4\gc2-scenebonus.mp4
Format : MPEG-4
Format profile : Base Media
Codec ID : isom
File size : 126 MiB
Duration : 11mn 9s
Overall bit rate : 1 578 Kbps
Encoded date : UTC 1970-01-01 00:00:00
Tagged date : UTC 1970-01-01 00:00:00
Writing application : Lavf52.88.0

Video
Format : AVC
Format/Info : Advanced Video Codec
Format profile : Baseline@L3.1
Format settings, CABAC : No
Format settings, ReFrames : 3 frames
Codec ID : avc1
Codec ID/Info : Advanced Video Coding
Duration : 11mn 9s
Bit rate mode : Variable
Bit rate : 1 511 Kbps
Nominal bit rate : 1 500 Kbps
Width : 720 pixels
Height : 400 pixels
Display aspect ratio : 16/9
Frame rate mode : Variable
Frame rate : 59.940 fps
Resolution : 24 bits
Colorimetry : 4:2:0
Scan type : Progressive
Bits/(Pixel*Frame) : 0.088
Stream size : 121 MiB (96%)
Writing library : x264 core 112
Encoding settings : cabac=0 / ref=3 / deblock=1:0:0 / analyse=0x1:0x111 / me=hex / subme=7 / psy=1 / psy_rd=1.00:0.00 / mixed_ref=1 / me_range=16 / chroma_me=1 / trellis=1 / 8x8dct=0 / cqm=0 / deadzone=21,11 / fast_pskip=1 / chroma_qp_offset=-2 / threads=16 / sliced_threads=0 / nr=0 / decimate=1 / interlaced=0 / constrained_intra=0 / bframes=0 / weightp=0 / keyint=250 / keyint_min=25 / scenecut=40 / intra_refresh=0 / rc_lookahead=40 / rc=abr / mbtree=1 / bitrate=1500 / ratetol=1.0 / qcomp=0.60 / qpmin=10 / qpmax=51 / qpstep=4 / ip_ratio=1.41 / aq=1:1.00
Encoded date : UTC 1970-01-01 00:00:00
Tagged date : UTC 2011-05-25 12:37:12

Audio
Format : AAC
Format/Info : Advanced Audio Codec
Format version : Version 4
Format profile : LC
Format settings, SBR : No
Codec ID : 40
Duration : 11mn 9s
Bit rate mode : Variable
Bit rate : 64.0 Kbps
Channel(s) : 2 channels
Channel positions : L R
Sampling rate : 44.1 KHz
Resolution : 16 bits
Stream size : 5.11 MiB (4%)
Encoded date : UTC 1970-01-01 00:00:00
Tagged date : UTC 2011-05-25 12:37:12


! AdBlock , )))
 ·  , , FAQ-
:  [ 02--2011 02:15 ]

  

.torrent

.torrent 52 KB


: 10.3 GB
(hash) : 9bc6f85193312c5398583b3325d6d503c38858a6
··
...
Superjob
dpd RU

Girl Crush 2 2 . !

!