Nice Rack 15 15 UnionPeer.org HD

2015, 2014 UnionPeer.org

.

12.32 GB   |    :  9    |    .torrent :  201    |   
1  
   
Timeweb Many GEOs Sprinthost
...
 

Galfimbul ghost

avatar Galfimbul ghost


Nice Rack 15 / 15



: 2007| : USA | : Busty, Big Tits, Natural Tits
: Ivan | : Anabolic | : 4h 45min
:

:
Natasha Nice, Riley Evans, Jenna Simpson, Evie Dellatossa, Ryaan Reynolds, Whitney Stevens, Britney Stevens, Tony T, Mark Ashley, Brian Surewood, James Deen, Sascha

:
100% Natural!

We are proud to bring you our First Ever Double Disc Movie! This movie has so much action that it couldn't fit on one disc. Our talented directors Ivan & Tony T. take this series to another dimension with 7 Beautiful Busty Beauties showing us their hunger for sex! Cum Swapping Sisters and a 18 yr. old with DDD's is only the beginning of this masterpiece.

HD : 720p | : BDRip | : MKV
: MPEG4 Video (H264) 1280x720 (16:9) 29.97 fps 5962 Kbps | : AC3, 224 Kbps, 2 channels, 48.0 KHz

:

General
Complete name : W:\Nice.Rack.15.XXX.2007.BluRay.720p.x264\nr15a.mkv
Format : Matroska
File size : 7.95 GiB
Duration : 3h 1mn
Overall bit rate : 6 273 Kbps
Encoded date : UTC 2011-06-25 16:22:26
Writing application : mkvmerge v4.8.0 ('I Got The...') built on May 24 2011 03:12:58
Writing library : libebml v1.2.0 + libmatroska v1.1.0

Video
ID : 1
Format : AVC
Format/Info : Advanced Video Codec
Format profile : High@L4.1
Format settings, CABAC : Yes
Format settings, ReFrames : 5 frames
Muxing mode : Container profile=Unknown@4.1
Codec ID : V_MPEG4/ISO/AVC
Duration : 3h 1mn
Bit rate : 5 924 Kbps
Nominal bit rate : 5 962 Kbps
Width : 1 280 pixels
Height : 720 pixels
Display aspect ratio : 16/9
Frame rate : 29.970 fps
Resolution : 24 bits
Colorimetry : 4:2:0
Scan type : Progressive
Bits/(Pixel*Frame) : 0.214
Stream size : 7.50 GiB (94%)
Writing library : x264 core 115 r1995 c1e60b9
Encoding settings : cabac=1 / ref=5 / deblock=1:0:0 / analyse=0x3:0x133 / me=umh / subme=7 / psy=1 / psy_rd=1.00:0.00 / mixed_ref=1 / me_range=16 / chroma_me=1 / trellis=1 / 8x8dct=1 / cqm=0 / deadzone=21,11 / fast_pskip=1 / chroma_qp_offset=-4 / threads=12 / sliced_threads=0 / nr=0 / decimate=1 / interlaced=0 / bluray_compat=0 / constrained_intra=0 / bframes=3 / b_pyramid=2 / b_adapt=1 / b_bias=0 / direct=1 / weightb=1 / open_gop=0 / weightp=2 / keyint=250 / keyint_min=25 / scenecut=40 / intra_refresh=0 / rc_lookahead=40 / rc=2pass / mbtree=1 / bitrate=5962 / ratetol=1.0 / qcomp=0.60 / qpmin=0 / qpmax=69 / qpstep=4 / cplxblur=20.0 / qblur=0.5 / ip_ratio=1.40 / aq=1:1.00

Audio
ID : 2
Format : AC-3
Format/Info : Audio Coding 3
Codec ID : A_AC3
Duration : 3h 1mn
Bit rate mode : Constant
Bit rate : 224 Kbps
Channel(s) : 2 channels
Channel positions : L R
Sampling rate : 48.0 KHz
Stream size : 291 MiB (4%)

General
Complete name : W:\Nice.Rack.15.XXX.2007.BluRay.720p.x264\nr15b.mkv
Format : Matroska
File size : 4.37 GiB
Duration : 1h 43mn
Overall bit rate : 6 040 Kbps
Encoded date : UTC 2011-06-25 16:31:31
Writing application : mkvmerge v4.8.0 ('I Got The...') built on May 24 2011 03:12:58
Writing library : libebml v1.2.0 + libmatroska v1.1.0

Video
ID : 1
Format : AVC
Format/Info : Advanced Video Codec
Format profile : High@L4.1
Format settings, CABAC : Yes
Format settings, ReFrames : 5 frames
Muxing mode : Container profile=Unknown@4.1
Codec ID : V_MPEG4/ISO/AVC
Duration : 1h 43mn
Bit rate : 5 696 Kbps
Width : 1 280 pixels
Height : 720 pixels
Display aspect ratio : 16/9
Frame rate : 29.970 fps
Resolution : 24 bits
Colorimetry : 4:2:0
Scan type : Progressive
Bits/(Pixel*Frame) : 0.206
Stream size : 4.12 GiB (94%)

Audio
ID : 2
Format : AC-3
Format/Info : Audio Coding 3
Codec ID : A_AC3
Duration : 1h 43mn
Bit rate mode : Constant
Bit rate : 224 Kbps
Channel(s) : 2 channels
Channel positions : L R
Sampling rate : 48.0 KHz
Video delay : 3ms
Stream size : 166 MiB (4%)


! AdBlock , )))
 ·  , , FAQ-
:  [ 02--2011 02:16 ]

  

.torrent

.torrent 62 KB


: 12.32 GB
(hash) : 7d79a7beed3af9a8edc542d034b3d82db5ab5f41
··
...
Superjob
dpd RU

Nice Rack 15 15 . !

!