Скачать порно через торрент Swimsuit Calendar Girls 2 Девочки с Календаря в Купальниках 2 UnionPeer.org бесплатно онлайн HD качество

Скачать новое порно 2015, 2014 новинки через торрент UnionPeer.org

Порно торрент бесплатно ЮнионПир.орг

Статистика раздачи
Размер:  20.17 GB   |    Зарегистрирован:  9 лет   |    .torrent скачан:  219 раз   |   
Раздают:  1  
 

Скачать Swimsuit Calendar Girls 2 / Девочки с Календаря в Купальниках 2 (William H / Elegant Angel) [2008, Gonzo, Anal, Straight, 1080p, Blu-Ray] через torrent

 
Timeweb Many GEOs Sprinthost
загрузка...
 
Автор Сообщение

Galfimbul ghost

avatar Galfimbul ghost


Swimsuit Calendar Girls 2 / Девочки с Календаря в Купальниках 2



Год производства: 2008 | Жанр: Gonzo, Anal, Straight
Режиссер: William H. | Студия: Elegant Angel | Продолжительность: 02h 42min

В ролях:
Alexis Texas, Shyla Stylez, Carmella Bing, Kristina Rose, Kagney Linn Karter

Описание:
Adult entertainment studio, Elegant Angel Productions, proudly presents Swimsuit Calendar Girls 2. The movie stars Kristina Rose, alongside "Buttwoman" Alexis Texas, Shyla Stylez, Carmella Bing, and newcummer Kagney Lin Karter. Inside every DVD is a 13" x 19" Calendar Poster featuring the irresistible Kristina Rose by the oceanside. The movie is directed by the award winning, William H., renowned for his Big Wet Asses series (Best Big Butt Series 2009 - AVN), and Alexis Texas Is Buttwoman (Best All Sex Release 2009 - AVN).

Качество: 1080p, Blu-Ray | Формат видео: BDMV
Video: VC-1, 1920x1080, 14.1 Mbps, 23.976 fps | Audio: AC3, 192 Kbps, 2 channels, 48.0 KHz

Код:

General
ID                               : 0
Complete name                    : W:\SWIMSUIT_CALENDAR_GIRLS_2\BDMV\STREAM\00014.m2ts
Format                           : BDAV
Format/Info                      : BluRay Video
File size                        : 17.0 GiB
Duration                         : 2h 42mn
Overall bit rate                 : 14.9 Mbps
Maximum Overall bit rate         : 48.0 Mbps

Video
ID                               : 4113 (0x1011)
Menu ID                          : 1 (0x1)
Format                           : VC-1
Format profile                   : AP@L3
Duration                         : 2h 42mn
Bit rate                         : 14.1 Mbps
Width                            : 1 920 pixels
Height                           : 1 080 pixels
Display aspect ratio             : 16/9
Frame rate                       : 23.976 fps
Colorimetry                      : 4:2:0
Scan type                        : Progressive
Bits/(Pixel*Frame)               : 0.284
Stream size                      : 16.1 GiB (95%)

Audio
ID                               : 4352 (0x1100)
Menu ID                          : 1 (0x1)
Format                           : AC-3
Format/Info                      : Audio Coding 3
Duration                         : 2h 42mn
Bit rate mode                    : Constant
Bit rate                         : 192 Kbps
Channel(s)                       : 2 channels
Channel positions                : L R
Sampling rate                    : 48.0 KHz
Stream size                      : 224 MiB (1%)


Внимание! AdBlock блокирует показ скриншотов, все вопросы к разработчикам )))
Трекер:  [ 02-Июл-2011 02:20 ]

  

Скачать .torrent

Размер .torrent файла 106 KB


Размер: 20.17 GB
Хэш (hash) релиза: 2c64806859d748c62e4824673b8b26f4d6161e5e

Торренты, похожие на Swimsuit Calendar Girls 2 Девочки с Календаря в Купальниках 2 скачать торрент

Форум Название Автор Размер S L Добавлен
Порно фильмы без сюжета 1991-2010 / All Sex & Amateur 1991-2010 ·· Swimsuit Calendar Girls 2 / Девочки с календаря в купальниках 2 (William H., Elegant Angel) [2008 г., All Sex, HDRip] Galfimbul ghost 21260574721.98 GB 0 0 1364489389

19:49

28-Мар-13

Superjob
dpd RU

Еще никто не оставлял запись к записи скачать торрент Swimsuit Calendar Girls 2 Девочки с Календаря в Купальниках 2 . Будь первым!

!Обратная связь