Anal Fanatic 2 2 UnionPeer.org HD

2015, 2014 UnionPeer.org

.

10.13 GB   |    :  9    |    .torrent :  230    |   
1  
   
Timeweb Many GEOs Sprinthost
...
 

Galfimbul ghost

avatar Galfimbul ghost


Anal Fanatic 2 / 2



: 2011 | : Gonzo, Anal
: Grazer | : Elegant Angel | : 175 min

:
Scene 1. Aleska Diamond, Mick Blue
Scene 2. Danica Dillan, Manuel Ferrara
Scene 3. Chanel Preston, Mick Blue
Scene 4. Brooklyn Lee, Manuel Ferrara
Scene 5. Jynx Maze, Erik Everhard, Steve Holmes

:
Grazer is back with "Anal Fanatic 2" a sensual and hardcore voyage into the joys of anal sex. Featuring lots of toy play, an intense D.P. with Jynx Maze, while also including an all star cast: Aleska Diamond, Brooklynn Lee, Chanel Preston and Danica Dillon. Do not miss!

: 1080p | : MP4
Video: AVC, 1920x1080, 8000 Kbps, 29.97 fps | Audio: AAC, 256 Kbps, 2 channels, 44.1 KHz

:

General
Complete name : W:\Anal.Fanatic.2.XXX.2011.1080p.WEB-DL.MP4\af2-scene01.mp4
Format : MPEG-4
Format profile : Base Media / Version 2
Codec ID : mp42
File size : 2.06 GiB
Duration : 35mn 47s
Overall bit rate : 8 248 Kbps
Encoded date : UTC 2011-03-19 02:48:55
Tagged date : UTC 2011-03-19 02:51:04

Video
Format : AVC
Format/Info : Advanced Video Codec
Format profile : Baseline@L4.0
Format settings, CABAC : No
Format settings, ReFrames : 2 frames
Codec ID : avc1
Codec ID/Info : Advanced Video Coding
Duration : 35mn 47s
Bit rate mode : Variable
Bit rate : 7 989 Kbps
Width : 1 920 pixels
Height : 1 080 pixels
Display aspect ratio : 16/9
Frame rate mode : Constant
Frame rate : 29.970 fps
Resolution : 24 bits
Colorimetry : 4:2:0
Scan type : Progressive
Bits/(Pixel*Frame) : 0.129
Stream size : 2.00 GiB (97%)
Language : English
Encoded date : UTC 2011-03-19 02:48:55
Tagged date : UTC 2011-03-19 02:51:04

Audio
Format : AAC
Format/Info : Advanced Audio Codec
Format version : Version 4
Format profile : LC
Format settings, SBR : No
Codec ID : 40
Duration : 35mn 47s
Bit rate mode : Constant
Bit rate : 256 Kbps
Channel(s) : 1 channel
Channel positions : C
Sampling rate : 44.1 KHz
Resolution : 16 bits
Stream size : 65.5 MiB (3%)
Language : English
Encoded date : UTC 2011-03-19 02:48:55
Tagged date : UTC 2011-03-19 02:51:04

General
Complete name : W:\Anal.Fanatic.2.XXX.2011.1080p.WEB-DL.MP4\af2-scene02.mp4
Format : MPEG-4
Format profile : Base Media / Version 2
Codec ID : mp42
File size : 1.77 GiB
Duration : 30mn 43s
Overall bit rate : 8 266 Kbps
Encoded date : UTC 2011-03-19 03:58:35
Tagged date : UTC 2011-03-19 04:00:25

Video
Format : AVC
Format/Info : Advanced Video Codec
Format profile : Baseline@L4.0
Format settings, CABAC : No
Format settings, ReFrames : 2 frames
Codec ID : avc1
Codec ID/Info : Advanced Video Coding
Duration : 30mn 43s
Bit rate mode : Variable
Bit rate : 8 007 Kbps
Width : 1 920 pixels
Height : 1 080 pixels
Display aspect ratio : 16/9
Frame rate mode : Constant
Frame rate : 29.970 fps
Resolution : 24 bits
Colorimetry : 4:2:0
Scan type : Progressive
Bits/(Pixel*Frame) : 0.129
Stream size : 1.72 GiB (97%)
Language : English
Encoded date : UTC 2011-03-19 03:58:34
Tagged date : UTC 2011-03-19 04:00:25

Audio
Format : AAC
Format/Info : Advanced Audio Codec
Format version : Version 4
Format profile : LC
Format settings, SBR : No
Codec ID : 40
Duration : 30mn 43s
Bit rate mode : Constant
Bit rate : 256 Kbps
Channel(s) : 1 channel
Channel positions : C
Sampling rate : 44.1 KHz
Resolution : 16 bits
Stream size : 56.2 MiB (3%)
Language : English
Encoded date : UTC 2011-03-19 03:58:34
Tagged date : UTC 2011-03-19 04:00:25

General
Complete name : W:\Anal.Fanatic.2.XXX.2011.1080p.WEB-DL.MP4\af2-scene03.mp4
Format : MPEG-4
Format profile : Base Media / Version 2
Codec ID : mp42
File size : 1.85 GiB
Duration : 32mn 0s
Overall bit rate : 8 267 Kbps
Encoded date : UTC 2011-03-19 05:10:16
Tagged date : UTC 2011-03-19 05:12:14

Video
Format : AVC
Format/Info : Advanced Video Codec
Format profile : Baseline@L4.0
Format settings, CABAC : No
Format settings, ReFrames : 2 frames
Codec ID : avc1
Codec ID/Info : Advanced Video Coding
Duration : 32mn 0s
Bit rate mode : Variable
Bit rate : 8 008 Kbps
Width : 1 920 pixels
Height : 1 080 pixels
Display aspect ratio : 16/9
Frame rate mode : Constant
Frame rate : 29.970 fps
Resolution : 24 bits
Colorimetry : 4:2:0
Scan type : Progressive
Bits/(Pixel*Frame) : 0.129
Stream size : 1.79 GiB (97%)
Language : English
Encoded date : UTC 2011-03-19 05:10:15
Tagged date : UTC 2011-03-19 05:12:14

Audio
Format : AAC
Format/Info : Advanced Audio Codec
Format version : Version 4
Format profile : LC
Format settings, SBR : No
Codec ID : 40
Duration : 32mn 0s
Bit rate mode : Constant
Bit rate : 256 Kbps
Channel(s) : 1 channel
Channel positions : C
Sampling rate : 44.1 KHz
Resolution : 16 bits
Stream size : 58.6 MiB (3%)
Language : English
Encoded date : UTC 2011-03-19 05:10:15
Tagged date : UTC 2011-03-19 05:12:14

General
Complete name : W:\Anal.Fanatic.2.XXX.2011.1080p.WEB-DL.MP4\af2-scene04.mp4
Format : MPEG-4
Format profile : Base Media / Version 2
Codec ID : mp42
File size : 2.25 GiB
Duration : 38mn 57s
Overall bit rate : 8 258 Kbps
Encoded date : UTC 2011-03-19 06:37:32
Tagged date : UTC 2011-03-19 06:40:00

Video
Format : AVC
Format/Info : Advanced Video Codec
Format profile : Baseline@L4.0
Format settings, CABAC : No
Format settings, ReFrames : 2 frames
Codec ID : avc1
Codec ID/Info : Advanced Video Coding
Duration : 38mn 57s
Bit rate mode : Variable
Bit rate : 7 999 Kbps
Width : 1 920 pixels
Height : 1 080 pixels
Display aspect ratio : 16/9
Frame rate mode : Constant
Frame rate : 29.970 fps
Resolution : 24 bits
Colorimetry : 4:2:0
Scan type : Progressive
Bits/(Pixel*Frame) : 0.129
Stream size : 2.18 GiB (97%)
Language : English
Encoded date : UTC 2011-03-19 06:37:31
Tagged date : UTC 2011-03-19 06:40:00

Audio
Format : AAC
Format/Info : Advanced Audio Codec
Format version : Version 4
Format profile : LC
Format settings, SBR : No
Codec ID : 40
Duration : 38mn 57s
Bit rate mode : Constant
Bit rate : 256 Kbps
Channel(s) : 1 channel
Channel positions : C
Sampling rate : 44.1 KHz
Resolution : 16 bits
Stream size : 71.3 MiB (3%)
Language : English
Encoded date : UTC 2011-03-19 06:37:31
Tagged date : UTC 2011-03-19 06:40:00

General
Complete name : W:\Anal.Fanatic.2.XXX.2011.1080p.WEB-DL.MP4\af2-scene05.mp4
Format : MPEG-4
Format profile : Base Media / Version 2
Codec ID : mp42
File size : 2.20 GiB
Duration : 38mn 10s
Overall bit rate : 8 256 Kbps
Encoded date : UTC 2011-03-19 08:03:41
Tagged date : UTC 2011-03-19 08:05:59

Video
Format : AVC
Format/Info : Advanced Video Codec
Format profile : Baseline@L4.0
Format settings, CABAC : No
Format settings, ReFrames : 2 frames
Codec ID : avc1
Codec ID/Info : Advanced Video Coding
Duration : 38mn 10s
Bit rate mode : Variable
Bit rate : 7 997 Kbps
Width : 1 920 pixels
Height : 1 080 pixels
Display aspect ratio : 16/9
Frame rate mode : Constant
Frame rate : 29.970 fps
Resolution : 24 bits
Colorimetry : 4:2:0
Scan type : Progressive
Bits/(Pixel*Frame) : 0.129
Stream size : 2.13 GiB (97%)
Language : English
Encoded date : UTC 2011-03-19 08:03:41
Tagged date : UTC 2011-03-19 08:05:59

Audio
Format : AAC
Format/Info : Advanced Audio Codec
Format version : Version 4
Format profile : LC
Format settings, SBR : No
Codec ID : 40
Duration : 38mn 10s
Bit rate mode : Constant
Bit rate : 256 Kbps
Channel(s) : 1 channel
Channel positions : C
Sampling rate : 44.1 KHz
Resolution : 16 bits
Stream size : 69.9 MiB (3%)
Language : English
Encoded date : UTC 2011-03-19 08:03:41
Tagged date : UTC 2011-03-19 08:05:59


! AdBlock , )))
 ·  , , FAQ-
:  [ 02--2011 02:21 ]

  

.torrent

.torrent 51 KB


: 10.13 GB
(hash) : 41b77f33ae5015dd6e1fcfaf039d386ec30d3744
··
...
Superjob
dpd RU

Anal Fanatic 2 2 . !

!