Asian Booty 2 2 UnionPeer.org HD

2015, 2014 UnionPeer.org

.

10.97 GB   |    :  9    |    .torrent :  193    |   
1  
   
Timeweb Many GEOs Sprinthost
...
 

Galfimbul ghost

avatar Galfimbul ghost


Asian Booty 2 / 2



: 2011 | : Asian, Interracial, Anal
: L.T. | : Elegant Angel | : 190 min

:
Scene 1. Katsuni, L.T.
Scene 2. Asa Akira, L.T.
Scene 3. Cece Stone, L.T.
Scene 4. Mika Tan, L.T.
Scene 5. Jayla Starr, Lucky Starr, L.T.

:
Interracial porn doesn't get any better than this. The finest, firmest, most curvaceous Asian asses in porn, assembled here for your delectation in "Asian Booty 2". Starring Katsuni, Asa Akira, Mika Tan, Cece Stone, Jayla Starr and Lucky Starr.

: 1080p | : MP4
Video: AVC, 1920x1080, 8000 Kbps, 29.97 fps | Audio: AAC, 256 Kbps, 2 channels, 44.1 KHz

:

General
Complete name : W:\Asian.Booty.2.XXX.2011.1080p.WEB-DL.MP4\ab2-scene01.mp4
Format : MPEG-4
Format profile : Base Media / Version 2
Codec ID : mp42
File size : 1.99 GiB
Duration : 34mn 32s
Overall bit rate : 8 262 Kbps
Encoded date : UTC 2011-03-19 09:21:46
Tagged date : UTC 2011-03-19 09:23:50

Video
Format : AVC
Format/Info : Advanced Video Codec
Format profile : Baseline@L4.0
Format settings, CABAC : No
Format settings, ReFrames : 2 frames
Codec ID : avc1
Codec ID/Info : Advanced Video Coding
Duration : 34mn 32s
Bit rate mode : Variable
Bit rate : 8 003 Kbps
Width : 1 920 pixels
Height : 1 080 pixels
Display aspect ratio : 16/9
Frame rate mode : Constant
Frame rate : 29.970 fps
Resolution : 24 bits
Colorimetry : 4:2:0
Scan type : Progressive
Bits/(Pixel*Frame) : 0.129
Stream size : 1.93 GiB (97%)
Language : English
Encoded date : UTC 2011-03-19 09:21:45
Tagged date : UTC 2011-03-19 09:23:50

Audio
Format : AAC
Format/Info : Advanced Audio Codec
Format version : Version 4
Format profile : LC
Format settings, SBR : No
Codec ID : 40
Duration : 34mn 32s
Bit rate mode : Constant
Bit rate : 256 Kbps
Channel(s) : 1 channel
Channel positions : C
Sampling rate : 44.1 KHz
Resolution : 16 bits
Stream size : 63.2 MiB (3%)
Language : English
Encoded date : UTC 2011-03-19 09:21:45
Tagged date : UTC 2011-03-19 09:23:50

General
Complete name : W:\Asian.Booty.2.XXX.2011.1080p.WEB-DL.MP4\ab2-scene02.mp4
Format : MPEG-4
Format profile : Base Media / Version 2
Codec ID : mp42
File size : 2.09 GiB
Duration : 36mn 21s
Overall bit rate : 8 249 Kbps
Encoded date : UTC 2011-03-19 10:43:14
Tagged date : UTC 2011-03-19 10:45:25

Video
Format : AVC
Format/Info : Advanced Video Codec
Format profile : Baseline@L4.0
Format settings, CABAC : No
Format settings, ReFrames : 2 frames
Codec ID : avc1
Codec ID/Info : Advanced Video Coding
Duration : 36mn 21s
Bit rate mode : Variable
Bit rate : 7 990 Kbps
Width : 1 920 pixels
Height : 1 080 pixels
Display aspect ratio : 16/9
Frame rate mode : Constant
Frame rate : 29.970 fps
Resolution : 24 bits
Colorimetry : 4:2:0
Scan type : Progressive
Bits/(Pixel*Frame) : 0.129
Stream size : 2.03 GiB (97%)
Language : English
Encoded date : UTC 2011-03-19 10:43:13
Tagged date : UTC 2011-03-19 10:45:25

Audio
Format : AAC
Format/Info : Advanced Audio Codec
Format version : Version 4
Format profile : LC
Format settings, SBR : No
Codec ID : 40
Duration : 36mn 21s
Bit rate mode : Constant
Bit rate : 256 Kbps
Channel(s) : 1 channel
Channel positions : C
Sampling rate : 44.1 KHz
Resolution : 16 bits
Stream size : 66.6 MiB (3%)
Language : English
Encoded date : UTC 2011-03-19 10:43:13
Tagged date : UTC 2011-03-19 10:45:25

General
Complete name : W:\Asian.Booty.2.XXX.2011.1080p.WEB-DL.MP4\ab2-scene03.mp4
Format : MPEG-4
Format profile : Base Media / Version 2
Codec ID : mp42
File size : 2.21 GiB
Duration : 38mn 20s
Overall bit rate : 8 253 Kbps
Encoded date : UTC 2011-03-19 12:09:28
Tagged date : UTC 2011-03-19 12:11:49

Video
Format : AVC
Format/Info : Advanced Video Codec
Format profile : Baseline@L4.0
Format settings, CABAC : No
Format settings, ReFrames : 2 frames
Codec ID : avc1
Codec ID/Info : Advanced Video Coding
Duration : 38mn 20s
Bit rate mode : Variable
Bit rate : 7 994 Kbps
Width : 1 920 pixels
Height : 1 080 pixels
Display aspect ratio : 16/9
Frame rate mode : Constant
Frame rate : 29.970 fps
Resolution : 24 bits
Colorimetry : 4:2:0
Scan type : Progressive
Bits/(Pixel*Frame) : 0.129
Stream size : 2.14 GiB (97%)
Language : English
Encoded date : UTC 2011-03-19 12:09:27
Tagged date : UTC 2011-03-19 12:11:49

Audio
Format : AAC
Format/Info : Advanced Audio Codec
Format version : Version 4
Format profile : LC
Format settings, SBR : No
Codec ID : 40
Duration : 38mn 20s
Bit rate mode : Constant
Bit rate : 256 Kbps
Channel(s) : 1 channel
Channel positions : C
Sampling rate : 44.1 KHz
Resolution : 16 bits
Stream size : 70.2 MiB (3%)
Language : English
Encoded date : UTC 2011-03-19 12:09:27
Tagged date : UTC 2011-03-19 12:11:49

General
Complete name : W:\Asian.Booty.2.XXX.2011.1080p.WEB-DL.MP4\ab2-scene04.mp4
Format : MPEG-4
Format profile : Base Media / Version 2
Codec ID : mp42
File size : 1.96 GiB
Duration : 33mn 58s
Overall bit rate : 8 261 Kbps
Encoded date : UTC 2011-03-19 13:25:56
Tagged date : UTC 2011-03-19 13:27:58

Video
Format : AVC
Format/Info : Advanced Video Codec
Format profile : Baseline@L4.0
Format settings, CABAC : No
Format settings, ReFrames : 2 frames
Codec ID : avc1
Codec ID/Info : Advanced Video Coding
Duration : 33mn 58s
Bit rate mode : Variable
Bit rate : 8 002 Kbps
Width : 1 920 pixels
Height : 1 080 pixels
Display aspect ratio : 16/9
Frame rate mode : Constant
Frame rate : 29.970 fps
Resolution : 24 bits
Colorimetry : 4:2:0
Scan type : Progressive
Bits/(Pixel*Frame) : 0.129
Stream size : 1.90 GiB (97%)
Language : English
Encoded date : UTC 2011-03-19 13:25:55
Tagged date : UTC 2011-03-19 13:27:58

Audio
Format : AAC
Format/Info : Advanced Audio Codec
Format version : Version 4
Format profile : LC
Format settings, SBR : No
Codec ID : 40
Duration : 33mn 58s
Bit rate mode : Constant
Bit rate : 256 Kbps
Channel(s) : 1 channel
Channel positions : C
Sampling rate : 44.1 KHz
Resolution : 16 bits
Stream size : 62.2 MiB (3%)
Language : English
Encoded date : UTC 2011-03-19 13:25:55
Tagged date : UTC 2011-03-19 13:27:58

General
Complete name : W:\Asian.Booty.2.XXX.2011.1080p.WEB-DL.MP4\ab2-scene05.mp4
Format : MPEG-4
Format profile : Base Media / Version 2
Codec ID : mp42
File size : 2.71 GiB
Duration : 46mn 53s
Overall bit rate : 8 266 Kbps
Encoded date : UTC 2011-03-19 15:10:40
Tagged date : UTC 2011-03-19 15:13:27

Video
Format : AVC
Format/Info : Advanced Video Codec
Format profile : Baseline@L4.0
Format settings, CABAC : No
Format settings, ReFrames : 2 frames
Codec ID : avc1
Codec ID/Info : Advanced Video Coding
Duration : 46mn 53s
Bit rate mode : Variable
Bit rate : 8 006 Kbps
Width : 1 920 pixels
Height : 1 080 pixels
Display aspect ratio : 16/9
Frame rate mode : Constant
Frame rate : 29.970 fps
Resolution : 24 bits
Colorimetry : 4:2:0
Scan type : Progressive
Bits/(Pixel*Frame) : 0.129
Stream size : 2.62 GiB (97%)
Language : English
Encoded date : UTC 2011-03-19 15:10:39
Tagged date : UTC 2011-03-19 15:13:27

Audio
Format : AAC
Format/Info : Advanced Audio Codec
Format version : Version 4
Format profile : LC
Format settings, SBR : No
Codec ID : 40
Duration : 46mn 53s
Bit rate mode : Constant
Bit rate : 256 Kbps
Channel(s) : 1 channel
Channel positions : C
Sampling rate : 44.1 KHz
Resolution : 16 bits
Stream size : 85.9 MiB (3%)
Language : English
Encoded date : UTC 2011-03-19 15:10:39
Tagged date : UTC 2011-03-19 15:13:27


! AdBlock , )))
 ·  , , FAQ-
:  [ 02--2011 02:21 ]

  

.torrent

.torrent 55 KB


: 10.97 GB
(hash) : 65320204f02c6bcf15c935add7fb9e6ea7d07000
··
...
Superjob
dpd RU

Asian Booty 2 2 . !

!