Asian Booty UnionPeer.org HD

2015, 2014 UnionPeer.org

.

11.21 GB   |    :  9    |    .torrent :  191    |   
1   1  
   
Timeweb Many GEOs Sprinthost
...
 

Galfimbul ghost

avatar Galfimbul ghost


Asian Booty /



: 2010 | : Asian, Interracial, Anal
: L.T. | : Elegant Angel | : 194 min

:
Scene 1. Asa Akira, L.T.
Scene 2. Max Mikita, L.T.
Scene 3. London Keys, L.T.
Scene 4. Jazmine Leih, L.T.
Scene 5. Kaiya Lynn, Kita Zen, L.T.

:
Interracial porn doesn't get any better than this. The finest, firmest, most curvaceous Asian asses in porn, assembled here for your delectation in "Asian Booty". Starring Asa Akira, London Keyes, Max Mikita, Jazmine Leih, Kaiya Lynn and Kita Zen.

: 1080p | : MP4
Video: AVC, 1920x1080, 8000 Kbps, 29.97 fps | Audio: AAC, 256 Kbps, 2 channels, 44.1 KHz

:

General
Complete name : W:\Asian.Booty.XXX.2010.1080p.WEB-DL.MP4\ab-scene01.mp4
Format : MPEG-4
Format profile : Base Media / Version 2
Codec ID : mp42
File size : 2.28 GiB
Duration : 39mn 37s
Overall bit rate : 8 247 Kbps
Encoded date : UTC 2010-08-16 21:18:28
Tagged date : UTC 2010-08-16 21:22:10

Video
Format : AVC
Format/Info : Advanced Video Codec
Format profile : Baseline@L4.0
Format settings, CABAC : No
Format settings, ReFrames : 2 frames
Codec ID : avc1
Codec ID/Info : Advanced Video Coding
Duration : 39mn 37s
Bit rate mode : Variable
Bit rate : 7 988 Kbps
Width : 1 920 pixels
Height : 1 080 pixels
Display aspect ratio : 16/9
Frame rate mode : Constant
Frame rate : 29.970 fps
Resolution : 24 bits
Colorimetry : 4:2:0
Scan type : Progressive
Bits/(Pixel*Frame) : 0.129
Stream size : 2.21 GiB (97%)
Language : English
Encoded date : UTC 2010-08-16 21:18:27
Tagged date : UTC 2010-08-16 21:22:10

Audio
Format : AAC
Format/Info : Advanced Audio Codec
Format version : Version 4
Format profile : LC
Format settings, SBR : No
Codec ID : 40
Duration : 39mn 37s
Bit rate mode : Constant
Bit rate : 256 Kbps
Channel(s) : 2 channels
Channel positions : L R
Sampling rate : 44.1 KHz
Resolution : 16 bits
Stream size : 72.6 MiB (3%)
Language : English
Encoded date : UTC 2010-08-16 21:18:27
Tagged date : UTC 2010-08-16 21:22:10

General
Complete name : W:\Asian.Booty.XXX.2010.1080p.WEB-DL.MP4\ab-scene02.mp4
Format : MPEG-4
Format profile : Base Media / Version 2
Codec ID : mp42
File size : 2.03 GiB
Duration : 35mn 18s
Overall bit rate : 8 248 Kbps
Encoded date : UTC 2010-08-16 22:41:10
Tagged date : UTC 2010-08-16 22:44:31

Video
Format : AVC
Format/Info : Advanced Video Codec
Format profile : Baseline@L4.0
Format settings, CABAC : No
Format settings, ReFrames : 2 frames
Codec ID : avc1
Codec ID/Info : Advanced Video Coding
Duration : 35mn 18s
Bit rate mode : Variable
Bit rate : 7 988 Kbps
Width : 1 920 pixels
Height : 1 080 pixels
Display aspect ratio : 16/9
Frame rate mode : Constant
Frame rate : 29.970 fps
Resolution : 24 bits
Colorimetry : 4:2:0
Scan type : Progressive
Bits/(Pixel*Frame) : 0.129
Stream size : 1.97 GiB (97%)
Language : English
Encoded date : UTC 2010-08-16 22:41:08
Tagged date : UTC 2010-08-16 22:44:31

Audio
Format : AAC
Format/Info : Advanced Audio Codec
Format version : Version 4
Format profile : LC
Format settings, SBR : No
Codec ID : 40
Duration : 35mn 18s
Bit rate mode : Constant
Bit rate : 256 Kbps
Channel(s) : 2 channels
Channel positions : L R
Sampling rate : 44.1 KHz
Resolution : 16 bits
Stream size : 64.7 MiB (3%)
Language : English
Encoded date : UTC 2010-08-16 22:41:08
Tagged date : UTC 2010-08-16 22:44:31

General
Complete name : W:\Asian.Booty.XXX.2010.1080p.WEB-DL.MP4\ab-scene03.mp4
Format : MPEG-4
Format profile : Base Media / Version 2
Codec ID : mp42
File size : 1.69 GiB
Duration : 29mn 22s
Overall bit rate : 8 243 Kbps
Encoded date : UTC 2010-08-16 23:49:45
Tagged date : UTC 2010-08-16 23:52:30

Video
Format : AVC
Format/Info : Advanced Video Codec
Format profile : Baseline@L4.0
Format settings, CABAC : No
Format settings, ReFrames : 2 frames
Codec ID : avc1
Codec ID/Info : Advanced Video Coding
Duration : 29mn 22s
Bit rate mode : Variable
Bit rate : 7 983 Kbps
Width : 1 920 pixels
Height : 1 080 pixels
Display aspect ratio : 16/9
Frame rate mode : Constant
Frame rate : 29.970 fps
Resolution : 24 bits
Colorimetry : 4:2:0
Scan type : Progressive
Bits/(Pixel*Frame) : 0.128
Stream size : 1.64 GiB (97%)
Language : English
Encoded date : UTC 2010-08-16 23:49:43
Tagged date : UTC 2010-08-16 23:52:30

Audio
Format : AAC
Format/Info : Advanced Audio Codec
Format version : Version 4
Format profile : LC
Format settings, SBR : No
Codec ID : 40
Duration : 29mn 22s
Bit rate mode : Constant
Bit rate : 256 Kbps
Channel(s) : 2 channels
Channel positions : L R
Sampling rate : 44.1 KHz
Resolution : 16 bits
Stream size : 53.8 MiB (3%)
Language : English
Encoded date : UTC 2010-08-16 23:49:43
Tagged date : UTC 2010-08-16 23:52:30

General
Complete name : W:\Asian.Booty.XXX.2010.1080p.WEB-DL.MP4\ab-scene04.mp4
Format : MPEG-4
Format profile : Base Media / Version 2
Codec ID : mp42
File size : 1.97 GiB
Duration : 34mn 9s
Overall bit rate : 8 252 Kbps
Encoded date : UTC 2010-08-17 01:08:23
Tagged date : UTC 2010-08-17 01:11:31

Video
Format : AVC
Format/Info : Advanced Video Codec
Format profile : Baseline@L4.0
Format settings, CABAC : No
Format settings, ReFrames : 2 frames
Codec ID : avc1
Codec ID/Info : Advanced Video Coding
Duration : 34mn 9s
Bit rate mode : Variable
Bit rate : 7 993 Kbps
Width : 1 920 pixels
Height : 1 080 pixels
Display aspect ratio : 16/9
Frame rate mode : Constant
Frame rate : 29.970 fps
Resolution : 24 bits
Colorimetry : 4:2:0
Scan type : Progressive
Bits/(Pixel*Frame) : 0.129
Stream size : 1.91 GiB (97%)
Language : English
Encoded date : UTC 2010-08-17 01:08:21
Tagged date : UTC 2010-08-17 01:11:31

Audio
Format : AAC
Format/Info : Advanced Audio Codec
Format version : Version 4
Format profile : LC
Format settings, SBR : No
Codec ID : 40
Duration : 34mn 9s
Bit rate mode : Constant
Bit rate : 256 Kbps
Channel(s) : 2 channels
Channel positions : L R
Sampling rate : 44.1 KHz
Resolution : 16 bits
Stream size : 62.6 MiB (3%)
Language : English
Encoded date : UTC 2010-08-17 01:08:21
Tagged date : UTC 2010-08-17 01:11:31

General
Complete name : W:\Asian.Booty.XXX.2010.1080p.WEB-DL.MP4\ab-scene05.mp4
Format : MPEG-4
Format profile : Base Media / Version 2
Codec ID : mp42
File size : 3.23 GiB
Duration : 55mn 59s
Overall bit rate : 8 267 Kbps
Encoded date : UTC 2010-08-25 15:50:04
Tagged date : UTC 2010-08-25 16:02:05

Video
Format : AVC
Format/Info : Advanced Video Codec
Format profile : Baseline@L4.0
Format settings, CABAC : No
Format settings, ReFrames : 2 frames
Codec ID : avc1
Codec ID/Info : Advanced Video Coding
Duration : 55mn 59s
Bit rate mode : Variable
Bit rate : 8 007 Kbps
Width : 1 920 pixels
Height : 1 080 pixels
Display aspect ratio : 16/9
Frame rate mode : Constant
Frame rate : 29.970 fps
Resolution : 24 bits
Colorimetry : 4:2:0
Scan type : Progressive
Bits/(Pixel*Frame) : 0.129
Stream size : 3.13 GiB (97%)
Language : English
Encoded date : UTC 2010-08-25 15:50:01
Tagged date : UTC 2010-08-25 16:02:05

Audio
Format : AAC
Format/Info : Advanced Audio Codec
Format version : Version 4
Format profile : LC
Format settings, SBR : No
Codec ID : 40
Duration : 55mn 59s
Bit rate mode : Constant
Bit rate : 256 Kbps
Channel(s) : 2 channels
Channel positions : L R
Sampling rate : 44.1 KHz
Resolution : 16 bits
Stream size : 103 MiB (3%)
Language : English
Encoded date : UTC 2010-08-25 15:50:01
Tagged date : UTC 2010-08-25 16:02:05


! AdBlock , )))
 ·  , , FAQ-
:  [ 02--2011 02:21 ]

  

.torrent

.torrent 56 KB


: 11.21 GB
(hash) : d6d4cb98fcbf6d5da8dbc9623f406f3f7c85e60a
··
...
Superjob
dpd RU

aruffin23

Please seed. Thank you! :-)

aruffin23

I am a newbie. Can someone help with the download? I can't seem to download anything using qBitTorrent. I'm stuck on 0%. Thank you!

Asian Booty

!