Скачать через торрент Расплата The Accountant Фильм бесплатно в хорошем качестве torrent

Скачивайте на UnionPeer.org фильмы через торрент без регистрации. Новинки кино в хорошем качестве через торрент. На UnionPeer.org можно скачать через торрент фильмы 2014 и 2015 годов. Самые новые фильмы.

Скачать торрент Расплата The Accountant бесплатно через .torrent фильм мультфильм сериал

Статистика раздачи
Размер:  10.18 GB   |    Зарегистрирован:  7 лет 5 месяцев   |    .torrent скачан:  756 раз   |   
Раздают:  1  
 

Скачать Расплата / The Accountant (Гэвин О’Коннор) [2016, боевик, триллер, драма, криминал, BDRip 1080p] Line через torrent

 
 
Автор Сообщение

Galfimbul

avatar Galfimbul


Расплата /The Accountant

Год выпуска: 2016
Страна: США
Жанр: боевик, триллер, драма, криминал
Перевод: Дубляж - [Line]
Примечание: Релиз без рекламы
Субтитры: русские (Full), русские (SDH), английские (Full), английские (SDH)
Продолжительность: 02:07:54
Режиссер: Гэвин О’Коннор
В ролях: Бен Аффлек (Christian Wolff), Анна Кендрик (Dana Cummings), Дж.К. Симмонс (Ray King), Джон Бернтал (Brax), Джеффри Тэмбор (Francis Silverberg), Синтия Аддай-Робинсон (Marybeth Medina), Джон Литгоу (Lamar Black), Джин Смарт (Rita Blackburn), Энди Умбергер (Ed Chilton), Элисон Райт (Justine), Джейсон Дэвис (Neurologist), Роберт С. Тревилер (Young Chris's Father)
Описание:
Лента расскажет историю математического гения Кристиана Вульфа, который подрабатывает аудитором для самых опасных преступных организаций. Когда ему «на хвост» садится отдел по борьбе с преступностью Министерства финансов во главе с Рэем Кингом Кристиан решает найти себе законопослушного клиента и проводит аудит в компании по производству новейшей робототехники, где сотрудница финансового отдела обнаружила «нестыковочку» в миллионы долларов. Но стоит Кристиану взяться за счета и выйти на след, как в деле начинают появляться жертвы.
Рейтинг:
MPAA: R - Лицам до 17 лет обязательно присутствие взрослого
Качество: BDRip 1080p
Формат: MKV
Видео: AVC, 1920x800 (2.40:1), 9503 kbps, 23,976 fps, 0,258 bpp
Аудио №1: русский / AC3 / 2.0 / 48 kHz / 384 kbps / |Дубляж, Line|
Аудио №2: английский / DTS / 5.1 / 48 kHz / 1509 kbps / 24 bit
Навигация по главам: есть
Сэмпл
General
Unique ID : 202723631506857778418894242090603613417 (0x988326B75CF0E0BF939CF543B6298CE9)
Complete name : E:The.Accountant.2016.BDRip.1080p.mkv
Format : Matroska
Format version : Version 4 / Version 2
File size : 10.2 GiB
Duration : 2 h 7 min
Overall bit rate : 11.4 Mb/s
Encoded date : UTC 2016-12-24 01:56:22
Writing application : mkvmerge v8.3.0 ('Over the Horizon') 64bit
Writing library : libebml v1.3.1 + libmatroska v1.4.2

Video
ID : 1
Format : AVC
Format/Info : Advanced Video Codec
Format profile : [email protected]
Format settings, CABAC : Yes
Format settings, ReFrames : 5 frames
Codec ID : V_MPEG4/ISO/AVC
Duration : 2 h 7 min
Bit rate : 9 503 kb/s
Width : 1 920 pixels
Height : 800 pixels
Display aspect ratio : 2.40:1
Frame rate mode : Constant
Frame rate : 23.976 FPS
Color space : YUV
Chroma subsampling : 4:2:0
Bit depth : 8 bits
Scan type : Progressive
Bits/(Pixel*Frame) : 0.258
Stream size : 8.49 GiB (83%)
Writing library : x264 core 148 r2705 3f5ed56
Encoding settings : cabac=1 / ref=5 / deblock=1:0:0 / analyse=0x3:0x133 / me=umh / subme=7 / psy=1 / psy_rd=1.00:0.00 / mixed_ref=1 / me_range=16 / chroma_me=1 / trellis=1 / 8x8dct=1 / cqm=0 / deadzone=21,11 / fast_pskip=0 / chroma_qp_offset=-2 / threads=25 / lookahead_threads=4 / sliced_threads=0 / nr=0 / decimate=1 / interlaced=0 / bluray_compat=0 / constrained_intra=0 / bframes=3 / b_pyramid=2 / b_adapt=1 / b_bias=0 / direct=1 / weightb=1 / open_gop=0 / weightp=2 / keyint=250 / keyint_min=23 / scenecut=40 / intra_refresh=0 / rc_lookahead=40 / rc=2pass / mbtree=1 / bitrate=9503 / ratetol=1.0 / qcomp=0.60 / qpmin=0 / qpmax=69 / qpstep=4 / cplxblur=20.0 / qblur=0.5 / ip_ratio=1.40 / aq=1:1.00
Language : English
Default : Yes
Forced : No

Audio #1
ID : 2
Format : AC-3
Format/Info : Audio Coding 3
Mode extension : CM (complete main)
Format settings, Endianness : Big
Codec ID : A_AC3
Duration : 2 h 7 min
Bit rate mode : Constant
Bit rate : 384 kb/s
Channel(s) : 2 channels
Channel positions : Front: L R
Sampling rate : 48.0 kHz
Frame rate : 31.250 FPS (1536 spf)
Compression mode : Lossy
Stream size : 351 MiB (3%)
Title : Dub
Language : Russian
Default : Yes
Forced : No

Audio #2
ID : 3
Format : DTS
Format/Info : Digital Theater Systems
Mode : 16
Format settings, Endianness : Big
Codec ID : A_DTS
Duration : 2 h 7 min
Bit rate mode : Constant
Bit rate : 1 509 kb/s
Channel(s) : 6 channels
Channel positions : Front: L C R, Side: L R, LFE
Sampling rate : 48.0 kHz
Frame rate : 93.750 FPS (512 spf)
Bit depth : 24 bits
Compression mode : Lossy
Stream size : 1.35 GiB (13%)
Language : English
Default : No
Forced : No

Text #1
ID : 4
Format : UTF-8
Codec ID : S_TEXT/UTF8
Codec ID/Info : UTF-8 Plain Text
Duration : 2 h 0 min
Bit rate : 94 b/s
Count of elements : 1295
Stream size : 83.0 KiB (0%)
Title : Full
Language : Russian
Default : No
Forced : No

Text #2
ID : 5
Format : UTF-8
Codec ID : S_TEXT/UTF8
Codec ID/Info : UTF-8 Plain Text
Duration : 2 h 0 min
Bit rate : 98 b/s
Count of elements : 1372
Stream size : 86.5 KiB (0%)
Title : SDH
Language : Russian
Default : No
Forced : No

Text #3
ID : 6
Format : UTF-8
Codec ID : S_TEXT/UTF8
Codec ID/Info : UTF-8 Plain Text
Duration : 1 h 58 min
Bit rate : 54 b/s
Count of elements : 1495
Stream size : 47.5 KiB (0%)
Title : Full
Language : English
Default : No
Forced : No

Text #4
ID : 7
Format : UTF-8
Codec ID : S_TEXT/UTF8
Codec ID/Info : UTF-8 Plain Text
Duration : 1 h 59 min
Bit rate : 59 b/s
Count of elements : 1691
Stream size : 52.3 KiB (0%)
Title : SDH
Language : English
Default : No
Forced : No

Menu
00:00:00.000 : en:00:00:00.000
00:13:01.447 : en:00:13:01.447
00:20:36.277 : en:00:20:36.277
00:29:30.394 : en:00:29:30.394
00:38:44.656 : en:00:38:44.656
00:49:33.679 : en:00:49:33.679
01:00:05.435 : en:01:00:05.435
01:13:39.707 : en:01:13:39.707
01:25:57.069 : en:01:25:57.069
01:39:15.658 : en:01:39:15.658
01:54:31.156 : en:01:54:31.156
02:01:40.251 : en:02:01:40.251


Внимание! AdBlock блокирует показ скриншотов, все вопросы к разработчикам )))

Трекер:  [ 24-Дек-2016 13:30 ]

  

Скачать .torrent

Размер .torrent файла 51 KB


Размер: 10.18 GB
Хэш (hash) релиза: 0484a0b7c6d79c060c21c6e2d026c3c6867ca665
Подписка на обновления:

Торренты, похожие на Расплата The Accountant скачать торрент

Форум Название Автор Размер S L Добавлен
Зарубежные фильмы 2016-2019 (Новинки зарубежного кино) ·%· Расплата / The Accountant (2016) WEB-DLRip | КПК | D | Open Matte Galfimbul 613985178586 MB 0 0 1550253622

21:00

15-Фев-19

Зарубежные фильмы 2016-2019 (Новинки зарубежного кино) ·%· Расплата / The Accountant (2016) BDRemux 1080p | D, A, L1 | Лицензия Galfimbul 4353298586740.54 GB 1 1 1547622609

10:10

16-Янв-19

Зарубежные фильмы 2016-2019 (Новинки зарубежного кино) ·%· Расплата / The Accountant (2016) WEB-DLRip 720p | D, A, L1 | Open Matte Galfimbul 103991280709.68 GB 0 0 1547305213

18:00

12-Янв-19

Зарубежные фильмы 2016-2019 (Новинки зарубежного кино) ·%· Расплата / The Accountant (2016) WEB-DLRip-AVC | D | Open Matte Galfimbul 28968890982.7 GB 0 0 1546938011

12:00

8-Янв-19

Зарубежные фильмы до 2016 ·· Расплата / The Accountant (Гэвин О’Коннор / Gavin O'Connor) [2016, США, Боевик, триллер, драма, криминал, DVD9] R5 Dub + Sub Rus + Original Eng Galfimbul 68980797446.42 GB 0 0 1525199427

21:30

1-Май-18

Зарубежные фильмы 2016-2019 (Новинки зарубежного кино) ·· Расплата / The Accountant (Гэвин О’Коннор / Gavin O'Connor) [2016, США, боевик, триллер, драма, криминал, BDRip] AVO (Немахов) Galfimbul 15674777601.46 GB 0 0 1508085024

19:30

15-Окт-17

Зарубежные фильмы до 2016 ·· Расплата / The Accountant (Гэвин О’Коннор / Gavin O'Connor) [2016, США, боевик, триллер, драма, криминал, BD> DVD9 (Custom)] DUB + AVO + Sub Rus / Eng + Original Eng Galfimbul 84120862727.83 GB 0 0 1495043729

20:55

17-Май-17

Трейлеры и дополнительные материалы ·· Расплата / The Accountant (Гэвин О’Коннор) [2016, Боевик | Триллер | Драма | Криминал, BDRip 720p] дополнительные материалы Galfimbul 813582665776 MB 0 0 1486313351

19:49

5-Фев-17

Зарубежные фильмы до 2016 ·· Расплата / The Accountant (Гэвин О’Коннор / Gavin O'Connor) [2016, США, боевик, триллер, драма, криминал, BDRip 1080p] Dub + Original Eng + Sub (Rus, Eng) Galfimbul 1680591940015.65 GB 0 0 1485264492

16:28

24-Янв-17

Зарубежные фильмы до 2016 ·· Расплата / The Accountant (Гэвин О’Коннор / Gavin O'Connor) [2016, США, боевик, триллер, драма, криминал, Blu-ray disc 1080p] [CEE] Dub + Sub Rus, Eng + Original Eng Galfimbul 4054391888837.76 GB 0 0 1485195887

21:24

23-Янв-17

Зарубежные фильмы до 2016 ·· Расплата / The Accountant (Гэвин О’Коннор / Gavin O'Connor) [2016, США, боевик, триллер, драма, криминал, BDRip 720p] Dub + Sub Rus, Eng + Original Eng Galfimbul 83206041997.75 GB 0 0 1485104867

20:07

22-Янв-17

Зарубежные фильмы 2016-2019 (Новинки зарубежного кино) ·· Расплата / The Accountant (Гэвин О’Коннор / Gavin O'Connor) [2016, США, боевик, триллер, драма, BDRip 1080p] Лицензия Galfimbul 1680591940015.65 GB 0 0 1485094537

17:15

22-Янв-17

Зарубежные фильмы 2016-2019 (Новинки зарубежного кино) ·· Расплата / The Accountant (Гэвин О’Коннор / Gavin O'Connor) [2016, США, боевик, триллер, драма, BDRip 720p] Лицензия Galfimbul 1078236014410.04 GB 0 0 1485092463

16:41

22-Янв-17

Зарубежные фильмы 2016-2019 (Новинки зарубежного кино) ·· Расплата / The Accountant (Гэвин О’Коннор / Gavin O'Connor) [2016, США, боевик, триллер, драма, BDRip HEVC 720p] iTunes Galfimbul 32657258023.04 GB 0 0 1483820101

23:15

7-Янв-17

Зарубежные фильмы 2016-2019 (Новинки зарубежного кино) ·· Расплата / The Accountant (Гэвин О’Коннор / Gavin O'Connor) [2016, США, боевик, триллер, драма, BDRip HEVC 1080p] iTunes Galfimbul 79641618917.42 GB 0 0 1483820097

23:14

7-Янв-17

Зарубежные фильмы 2016-2019 (Новинки зарубежного кино) ·· Расплата / The Accountant (Гэвин О’Коннор / Gavin O'Connor) [2016, США, боевик, триллер, драма, BDRip-AVC] Dub (iTunes) + Sub (rus) Galfimbul 15684764141.46 GB 0 0 1483442296

14:18

3-Янв-17

Зарубежные фильмы 2016-2019 (Новинки зарубежного кино) ·· Расплата / The Accountant (Гэвин О’Коннор / Gavin O'Connor) [2016, США, боевик, триллер, драма, BDRip-AVC] Dub (iTunes) + Original + Sub (rus, eng) Galfimbul 23428946402.18 GB 0 0 1483442293

14:18

3-Янв-17

Зарубежные фильмы 2016-2019 (Новинки зарубежного кино) ·· Расплата / The Accountant (Гэвин О’Коннор / Gavin O'Connor) [2016, США, боевик, триллер, драма, BDRip-AVC] Dub (iTunes) + Original + Sub (rus, eng) Galfimbul 31136632992.9 GB 0 0 1483442286

14:18

3-Янв-17

Зарубежные фильмы до 2016 ·· Расплата / The Accountant (Гэвин О’Коннор / Gavin O'Connor) [2016, США, Боевик, триллер, драма, криминал, BDRip 720p] Dub (iTunes) + Sub Rus, Eng + Original Eng Galfimbul 80749556197.52 GB 0 0 1483095406

13:56

30-Дек-16

Зарубежные фильмы 2016-2019 (Новинки зарубежного кино) ·· Расплата / The Accountant (Гэвин О’Коннор / Gavin O'Connor) [2016, США, Боевик, триллер, драма, криминал, BDRip] Dub (iTunes) + Sub Galfimbul 15621106511.45 GB 0 0 1482944464

20:01

28-Дек-16

Еще никто не оставлял запись к записи скачать торрент Расплата The Accountant . Будь первым!

!Обратная связь