Скачать через торрент Глубоководный горизонт Deepwater Horizon Фильм бесплатно в хорошем качестве torrent

Скачивайте на UnionPeer.org фильмы через торрент без регистрации. Новинки кино в хорошем качестве через торрент. На UnionPeer.org можно скачать через торрент фильмы 2014 и 2015 годов. Самые новые фильмы.

Скачать торрент Глубоководный горизонт Deepwater Horizon бесплатно через .torrent фильм мультфильм сериал

Статистика раздачи
Размер:  11.26 GB   |    Зарегистрирован:  7 лет 1 месяц   |    .torrent скачан:  445 раз   |   
Раздают:  1  
 

Скачать Глубоководный горизонт / Deepwater Horizon (Питер Берг / Peter Berg) [2016, Гонконг, США, боевик, триллер, драма, BDRip 1080p] Dub (iTunes) + Sub Eng + Original Eng через torrent

 
 
Автор Сообщение

Galfimbul

avatar Galfimbul


Глубоководный горизонт / Deepwater Horizon

Страна: США
Студия: Closest to the Hole Productions, Di Bonaventura Pictures, Imagenation Abu Dhabi FZ, Leverage Entertainment
Жанр: Боевик, триллер, драма
Год выпуска: 2016
Продолжительность: 01:47:17

Перевод: Профессиональный (дублированный) iTunes
Cубтитры: английские
Оригинальная аудиодорожка: английский

Режиссер: Питер Берг / Peter Berg

В ролях: Марк Уолберг, Курт Расселл, Джон Малкович, Джина Родригез, Дилан О`Брайэн, Кейт Хадсон, Итэн Сапли, Генри Фрост, Дуглас М. Гриффин, Сью-Линн Ансари, Брэд Лелэнд, Дж.Д. Эвермор

Описание: Отправляясь на очередную вахту и прощаясь с семьями, они не подозревали, что могут не вернуться… Это основанная на реальных событиях история о страшной аварии на нефтяной платформе «Глубоководный горизонт», которая произошла в 2010 году в Мексиканском заливе. Хроника беспримерного мужества и отваги перед лицом одной из самых страшных техногенных катастроф в мировой истории.

Доп. Информация:
Рип от Medusa @ HDChina.

Сэмпл: https://cloud.mail.ru/public/DC2e/bQ1pyx7go

Тип релиза: BDRip 1080p
Контейнер: MKV

Видео: MPEG-4 AVC, 14,0 Мбит/с, 1920x800, 23,976 fps
Аудио 1: Rus, AC3, 384 kb/s (6 ch), 48 kHz
Аудио 2: Eng, AC3, 640 kb/s (6 ch), 48 kHz
Формат субтитров: softsub (SRT)
Общее
Уникальный идентификатор : 208126682512957959964509808964190234716 (0x9C93BDB2AF62141CACF79569F0CE685C)
Полное имя : Deepwater.Horizon.2016.BDRip.1080p.mkv
Формат : Matroska
Версия формата : Version 4 / Version 2
Размер файла : 11,3 Гбайт
Продолжительность : 1 ч. 47 м.
Общий поток : 15,0 Мбит/сек
Дата кодирования : UTC 2016-12-30 03:12:29
Программа кодирования : mkvmerge v9.7.1 ('Pandemonium') 64bit
Библиотека кодирования : libebml v1.3.4 + libmatroska v1.4.5

Видео
Идентификатор : 1
Формат : AVC
Формат/Информация : Advanced Video Codec
Профиль формата : [email protected]
Параметр CABAC формата : Да
Параметр ReFrames формата : 5 кадров
Идентификатор кодека : V_MPEG4/ISO/AVC
Продолжительность : 1 ч. 47 м.
Битрейт : 14,0 Мбит/сек
Ширина : 1920 пикселей
Высота : 800 пикселей
Соотношение сторон : 2,40:1
Режим частоты кадров : Постоянный
Частота кадров : 23,976 (24000/1001) кадра/сек
Цветовое пространство : YUV
Субдискретизация насыщенности : 4:2:0
Битовая глубина : 8 бит
Тип развёртки : Прогрессивная
Бит/(Пиксели*Кадры) : 0.380
Размер потока : 10,5 Гбайт (93%)
Библиотека кодирования : x264 core 148 r2665kMod a01e339
Настройки программы : cabac=1 / ref=5 / deblock=1:-3:-3 / analyse=0x3:0x133 / me=umh / subme=11 / psy=1 / fade_compensate=0.00 / psy_rd=0.85:0.00 / mixed_ref=1 / me_range=48 / chroma_me=1 / trellis=2 / 8x8dct=1 / cqm=0 / deadzone=21,11 / fast_pskip=0 / chroma_qp_offset=-2 / threads=24 / lookahead_threads=4 / sliced_threads=0 / nr=0 / decimate=0 / interlaced=0 / bluray_compat=0 / constrained_intra=0 / fgo=0 / bframes=8 / b_pyramid=2 / b_adapt=2 / b_bias=0 / direct=3 / weightb=1 / open_gop=0 / weightp=2 / keyint=240 / keyint_min=24 / scenecut=40 / intra_refresh=0 / rc=2pass / mbtree=0 / bitrate=14000 / ratetol=1.0 / qcomp=0.70 / qpmin=0 / qpmax=69 / qpstep=4 / cplxblur=20.0 / qblur=0.5 / ip_ratio=1.20 / pb_ratio=1.20 / aq=3:0.80
Язык : English
Default : Да
Forced : Нет

Аудио #1
Идентификатор : 2
Формат : AC-3
Формат/Информация : Audio Coding 3
Расширение режима : CM (complete main)
Параметр Endianness формата : Big
Идентификатор кодека : A_AC3
Продолжительность : 1 ч. 47 м.
Вид битрейта : Постоянный
Битрейт : 384 Кбит/сек
Каналы : 6 каналов
Расположение каналов : Front: L C R, Side: L R, LFE
Частота : 48,0 КГц
Частота кадров : 31,250 кадров/сек (1536 spf)
Метод сжатия : С потерями
Размер потока : 295 Мбайт (3%)
Заголовок : iTunes
Язык : Russian
Default : Да
Forced : Нет

Аудио #2
Идентификатор : 3
Формат : AC-3
Формат/Информация : Audio Coding 3
Расширение режима : CM (complete main)
Параметр Endianness формата : Big
Идентификатор кодека : A_AC3
Продолжительность : 1 ч. 47 м.
Вид битрейта : Постоянный
Битрейт : 640 Кбит/сек
Каналы : 6 каналов
Расположение каналов : Front: L C R, Side: L R, LFE
Частота : 48,0 КГц
Частота кадров : 31,250 кадров/сек (1536 spf)
Метод сжатия : С потерями
Размер потока : 491 Мбайт (4%)
Язык : English
Default : Нет
Forced : Нет

Текст
Идентификатор : 4
Формат : UTF-8
Идентификатор кодека : S_TEXT/UTF8
Идентификатор кодека/Информация : UTF-8 Plain Text
Продолжительность : 1 ч. 36 м.
Битрейт : 70 бит/сек
Count of elements : 1477
Размер потока : 50,2 Кбайт (0%)
Язык : English
Default : Нет
Forced : Нет

Меню
00:00:00.000 : en:00:00:00.000
00:07:01.212 : en:00:07:01.212
00:12:32.627 : en:00:12:32.627
00:19:34.465 : en:00:19:34.465
00:27:17.219 : en:00:27:17.219
00:34:52.632 : en:00:34:52.632
00:44:29.834 : en:00:44:29.834
00:48:04.924 : en:00:48:04.924
00:53:47.599 : en:00:53:47.599
00:58:05.148 : en:00:58:05.148
01:05:44.607 : en:01:05:44.607
01:10:06.869 : en:01:10:06.869
01:16:02.933 : en:01:16:02.933
01:20:44.381 : en:01:20:44.381
01:27:37.669 : en:01:27:37.669
01:31:37.826 : en:01:31:37.826


Внимание! AdBlock блокирует показ скриншотов, все вопросы к разработчикам )))
Трекер:  [ 30-Дек-2016 16:30 ]

  

Скачать .torrent

Размер .torrent файла 56 KB


Размер: 11.26 GB
Хэш (hash) релиза: 1e31a47ab4fbaa34205dcf540c4189f73c53cc8b
Подписка на обновления:

Торренты, похожие на Глубоководный горизонт Deepwater Horizon скачать торрент

Форум Название Автор Размер S L Добавлен
Зарубежные фильмы 2016-2019 (Новинки зарубежного кино) ·· Глубоководный горизонт / Deepwater Horizon (Питер Берг / Peter Berg) [2016, ГонконгСША, боевик, триллер, BDRip] AVO (Сербин) Galfimbul 15646392321.46 GB 0 0 1500453033

11:30

19-Июл-17

Зарубежные фильмы до 2016 ·· Глубоководный горизонт / Deepwater Horizon (Питер Берг / Peter Berg) [2016, Гонконг, США, триллер, драма, BD> DVD9 (Custom)] DUB + DTS + Sub Rus / Eng + Original Eng Galfimbul 80737443847.52 GB 0 0 1493143499

21:04

25-Апр-17

Зарубежные фильмы 2016-2019 (Новинки зарубежного кино) ·· Глубоководный горизонт / Deepwater Horizon (2016) BDRip 720p от KinoGadget | iPad | Лицензия Galfimbul 22312493412.08 GB 0 0 1491025322

08:42

1-Апр-17

Зарубежные фильмы до 2016 ·· Глубоководный горизонт / Deepwater Horizon (Питер Берг / Peter Berg) [2016, Гонконг, США, боевик, триллер, драма, BDRemux 1080p] Dub + Original (Eng) + Sub (Eng) Galfimbul 3541355968232.98 GB 0 0 1485799274

21:01

30-Янв-17

Зарубежные фильмы до 2016 ·· Глубоководный горизонт / Deepwater Horizon (Питер Берг / Peter Berg) [2016, Гонконг, США, боевик, триллер, драма, Blu-ray disc 1080p] [RUS] Galfimbul 2049704788419.09 GB 0 0 1485708917

19:55

29-Янв-17

Зарубежные фильмы 2016-2019 (Новинки зарубежного кино) ·· Глубоководный горизонт / Deepwater Horizon (Питер Берг / Peter Berg) [2016, США, Боевик, триллер, драма, BDRip-AVC] Dub + Sub Rus, Eng + Original Eng Galfimbul 43969665554.09 GB 0 0 1485640599

00:56

29-Янв-17

Зарубежные фильмы 2016-2019 (Новинки зарубежного кино) ·· Глубоководный горизонт / Deepwater Horizon (Питер Берг / Peter Berg) [2016, США, боевик, триллер, драма, BDRip-AVC] Dub + Original Eng + Sub Eng Galfimbul 22034991252.05 GB 0 0 1484234898

18:28

12-Янв-17

Зарубежные фильмы 2016-2019 (Новинки зарубежного кино) ·· Глубоководный горизонт / Deepwater Horizon (Питер Берг / Peter Berg) [2016, США, боевик, триллер, драма, BDRip] Dub (iTunes) Galfimbul 15646371841.46 GB 0 0 1484234847

18:27

12-Янв-17

Зарубежные фильмы 2016-2019 (Новинки зарубежного кино) ·· Глубоководный горизонт / Deepwater Horizon (Питер Берг / Peter Berg) [2016, США, Боевик, триллер, драма, BDRip-AVC] Dub + Sub Eng + Original Eng Galfimbul 43454616674.05 GB 0 0 1484234843

18:27

12-Янв-17

Зарубежные фильмы 2016-2019 (Новинки зарубежного кино) ·· Глубоководный горизонт / Deepwater Horizon (Питер Берг / Peter Berg) [2016, Гонконг, США, боевик, триллер, драма, BDRip] Dub Galfimbul 15725240321.46 GB 0 0 1483514541

10:22

4-Янв-17

Зарубежные фильмы 2016-2019 (Новинки зарубежного кино) ·· Глубоководный горизонт / Deepwater Horizon (Питер Берг / Peter Berg) [2016, США, боевик, триллер, драма, WEB-DLRip-AVC] Dub (iTunes) Galfimbul 782640364746 MB 0 0 1483442376

14:19

3-Янв-17

Зарубежные фильмы 2016-2019 (Новинки зарубежного кино) ·· Глубоководный горизонт / Deepwater Horizon (Питер Берг / Peter Berg) [2016, Гонконг, США, боевик, триллер, драма, BDRip] Dub + Original (Eng) Galfimbul 23460331522.18 GB 0 0 1483442229

14:17

3-Янв-17

Зарубежные фильмы до 2016 ·· Глубоководный горизонт / Deepwater Horizon (Питер Берг / Peter Berg) [2016, Гонконг, США, боевик, триллер, драма, BDRip 720p] Dub (iTunes) + Sub Eng + Original Eng Galfimbul 60553932035.64 GB 0 0 1483108232

17:30

30-Дек-16

Зарубежные фильмы 2016-2019 (Новинки зарубежного кино) ·· Глубоководный горизонт / Deepwater Horizon (Питер Берг / Peter Berg) [2016, Гонконг, США, боевик, триллер, драма, BDRip 1080p] iTunes Galfimbul 1209064187411.26 GB 0 0 1483058437

03:40

30-Дек-16

Зарубежные фильмы 2016-2019 (Новинки зарубежного кино) ·· Глубоководный горизонт / Deepwater Horizon (Питер Берг / Peter Berg) [2016, Гонконг, США, боевик, триллер, драма, HDRip] iTunes Galfimbul 14678349801.37 GB 0 0 1482991833

09:10

29-Дек-16

Зарубежные фильмы 2016-2019 (Новинки зарубежного кино) ·· Глубоководный горизонт / Deepwater Horizon (Питер Берг / Peter Berg) [2016, Гонконг, США, боевик, триллер, драма, HDRip] iTunes Galfimbul 22048194562.05 GB 0 0 1482991828

09:10

29-Дек-16

Зарубежные фильмы 2016-2019 (Новинки зарубежного кино) ·· Глубоководный горизонт / Deepwater Horizon (Питер Берг / Peter Berg) [2016, Гонконг, США, боевик, триллер, драма, BDRip 1080p] iTunes Galfimbul 85163417177.93 GB 0 0 1482982855

06:40

29-Дек-16

Зарубежные фильмы 2016-2019 (Новинки зарубежного кино) ·· Глубоководный горизонт / Deepwater Horizon (Питер Берг / Peter Berg) [2016, Гонконг, США, боевик, триллер, драма, BDRip 720p] iTunes Galfimbul 49991991234.66 GB 0 0 1482981312

06:15

29-Дек-16

Зарубежные фильмы 2016-2019 (Новинки зарубежного кино) ·· Глубоководный горизонт / Deepwater Horizon (Питер Берг / Peter Berg) [2016, США, боевик, триллер, драма, WEB-DLRip 720p] iTunes Galfimbul 37132915403.46 GB 0 0 1482678897

18:14

25-Дек-16

Еще никто не оставлял запись к записи скачать торрент Глубоководный горизонт Deepwater Horizon . Будь первым!

!Обратная связь