Скачать через торрент Автобан Collide Фильм бесплатно в хорошем качестве torrent

Скачивайте на UnionPeer.org фильмы через торрент без регистрации. Новинки кино в хорошем качестве через торрент. На UnionPeer.org можно скачать через торрент фильмы 2014 и 2015 годов. Самые новые фильмы.

Скачать торрент Автобан Collide бесплатно через .torrent фильм мультфильм сериал

Статистика раздачи
Размер:  1.46 GB   |    Зарегистрирован:  7 лет 4 месяца   |    .torrent скачан:  126 раз   |   
Раздают:  1  
 

Скачать Автобан / Collide (Эрен Криви / Eran Creevy) [2016, Великобритания, Германия, боевик, триллер, HDRip] MVO (MUZOBOZ) + Original Eng через torrent

 
 
Автор Сообщение

Galfimbul

avatar Galfimbul


Автобан / Collide

Страна: Великобритания, Германия
Жанр: боевик, триллер
Год выпуска: 2016
Продолжительность: 01:39:08

Перевод: Любительский (многоголосый закадровый) MUZOBOZ
Cубтитры: нет
Оригинальная аудиодорожка: английский

Режиссер: Эрен Криви / Eran Creevy

В ролях: Николас Холт, Фелисити Джонс, Энтони Хопкинс, Бен Кингсли, Марван Кензари, Александр Йованович, Кристиан Перерсен, Эрдал Йильдиз

Описание: <span class="post-font-serif1">Американский турист Кейси Штайн, путешествуя с подругой по Европе, оказывается втянутым в разборки между двумя враждующими мафиозными группировками. Одну из них возглавляет Хаген, другую — Геран. И с этого момента начинается смертельно опасная гонка на запредельной скорости по автобанам Германии...</span>
<span class="post-font-cursive1">
Релиз без рекламы
</span>

Сэмпл: http://multi-up.com/1133388

Качество видео: HDRip (исходник не известен)
Формат видео: AVI

Видео: 720x304 (2.37:1), 23.976 fps, XviD build 50 ~1721 kbps avg, 0.33 bit/pixel
Аудио: 48 kHz, AC3 Dolby Digital, 2/0 (L,R) ch, ~192 kbps
Аудио 2: 48 kHz, AC3 Dolby Digital, 2/0 (L,R) ch, ~192 kbps
Format : AVI
Format/Info : Audio Video Interleave
File size : 1.46 GiB
Duration : 1 h 38 min
Overall bit rate : 2 120 kb/s
Writing application : VirtualDubMod 1.5.10.2 (build 2540/release)
Writing library : VirtualDubMod build 2540/release

Video
ID : 0
Format : MPEG-4 Visual
Format profile : Advanced Simple@L5
Format settings, BVOP : 1
Format settings, QPel : No
Format settings, GMC : No warppoints
Format settings, Matrix : Default (H.263)
Codec ID : XVID
Codec ID/Hint : XviD
Duration : 1 h 38 min
Bit rate : 1 722 kb/s
Width : 720 pixels
Height : 304 pixels
Display aspect ratio : 2.35:1
Frame rate : 23.976 (23976/1000) FPS
Color space : YUV
Chroma subsampling : 4:2:0
Bit depth : 8 bits
Scan type : Progressive
Compression mode : Lossy
Bits/(Pixel*Frame) : 0.328
Stream size : 1.19 GiB (81%)
Writing library : XviD 1.2.1 (UTC 2008-12-04)

Audio #1
ID : 1
Format : AC-3
Format/Info : Audio Coding 3
Mode extension : CM (complete main)
Format settings, Endianness : Big
Codec ID : 2000
Duration : 1 h 38 min
Bit rate mode : Constant
Bit rate : 192 kb/s
Channel(s) : 2 channels
Channel positions : Front: L R
Sampling rate : 48.0 kHz
Frame rate : 31.250 FPS (1536 spf)
Compression mode : Lossy
Stream size : 136 MiB (9%)
Alignment : Split accross interleaves
Interleave, duration : 42 ms (1.00 video frame)
Interleave, preload duration : 500 ms

Audio #2
ID : 2
Format : AC-3
Format/Info : Audio Coding 3
Mode extension : CM (complete main)
Format settings, Endianness : Big
Codec ID : 2000
Duration : 1 h 38 min
Bit rate mode : Constant
Bit rate : 192 kb/s
Channel(s) : 2 channels
Channel positions : Front: L R
Sampling rate : 48.0 kHz
Frame rate : 31.250 FPS (1536 spf)
Compression mode : Lossy
Stream size : 136 MiB (9%)
Alignment : Split accross interleaves
Interleave, duration : 42 ms (1.00 video frame)
Interleave, preload duration : 500 ms


Внимание! AdBlock блокирует показ скриншотов, все вопросы к разработчикам )))

Трекер:  [ 01-Янв-2017 23:00 ]

  

Скачать .torrent

Размер .torrent файла 15 KB


Размер: 1.46 GB
Хэш (hash) релиза: a3d74deeeb6dd66d74d99cc0984327e0b87d8d2e
Подписка на обновления:

Торренты, похожие на Автобан Collide скачать торрент

Форум Название Автор Размер S L Добавлен
Зарубежные фильмы 2016-2019 (Новинки зарубежного кино) ·· Автобан / Collide (Эрен Криви / Eran Creevy) [2016, Великобритания, Германия, боевик, триллер, BDRip] Dub (iTunes) Galfimbul 15208816641.42 GB 0 0 1494880408

23:33

15-Май-17

Зарубежные фильмы 2016-2019 (Новинки зарубежного кино) ·· Автобан / Collide (Эрен Криви / Eran Creevy) [2016, Великобритания, Боевик, триллер, HDRip] VO (Solod) Galfimbul 15644610561.46 GB 0 0 1483304948

00:09

2-Янв-17

Зарубежные фильмы 2016-2019 (Новинки зарубежного кино) ·· Автобан / Collide (Эрен Криви) [2016, боевик, триллер, HDRip] Galfimbul 15174354731.41 GB 0 0 1483183422

14:23

31-Дек-16

Зарубежные фильмы 2016-2019 (Новинки зарубежного кино) ·· Автобан / Collide (Эрен Криви) [2016, боевик, триллер, BDRip 720p] Galfimbul 48350674404.5 GB 0 0 1483170475

10:47

31-Дек-16

Зарубежные фильмы 2016-2019 (Новинки зарубежного кино) ·· Автобан / Collide (Эрен Криви) [2016, боевик, триллер, HDRip] Galfimbul 15696711681.46 GB 0 0 1483123297

21:41

30-Дек-16

Еще никто не оставлял запись к записи скачать торрент Автобан Collide . Будь первым!

!Обратная связь