Скачать через торрент Озеро Бодом Bodom Фильм бесплатно в хорошем качестве torrent

Скачивайте на UnionPeer.org фильмы через торрент без регистрации. Новинки кино в хорошем качестве через торрент. На UnionPeer.org можно скачать через торрент фильмы 2014 и 2015 годов. Самые новые фильмы.

Скачать торрент Озеро Бодом Bodom бесплатно через .torrent фильм мультфильм сериал

Статистика раздачи
Размер:  8.63 GB   |    Зарегистрирован:  7 лет 4 месяца   |    .torrent скачан:  134 раза   |   
Раздают:  1  
 

Скачать Озеро Бодом / Bodom (Танели Мустонен) [2016, ужасы, BDRip 1080p] через torrent

 
 
Автор Сообщение

Galfimbul

avatar Galfimbul


Озеро Бодом /Bodom

Год выхода: 2016
Жанр: ужасы
Режиссер: Танели Мустонен
В ролях: Nelly Hirst-Gee, Santeri Helinheimo M?ntyl?, Томми Корпела, Mimosa Willamo, Mikael Gabriel, Илка Хайсканен, Яркко Ниеми, Iiris Kankkunen, Pirjo Moilanen, Вилле Саксела
О фильме:
В основе фильма одно из самых резонансных преступлений в истории современной Финляндии. В 1960 году, неподалёку от Хельсинки, на озере Бодом были обнаружены тела трёх подростков, зарезанных ножом. Ещё один юноша уцелел в этой бойне, но был серьёзно ранен. Спустя годы четверо подростков решили реконструировать события 60хх годов на том озере.


Страна: Финляндия, Эстония
Студия: Don Films, MГјnchhausen Productions
Продолжительность: 01:24:18
Перевод: Любительский (одноголосый закадровый) [Хихикающий доктор]

Файл
Кодек: H.264
Качество: BDRip 1080p
Видео: 1920x808; 13,8 Мбит/сек; 24,000 кадра/сек; 0.371
Звук:
[Russian] #1. AC3; 44,1 КГц; 192 Кбит/сек; 2 канала [Хихикающий доктор]
[Finnish] #2. AC3; 48,0 КГц; 640 Кбит/сек; 6 каналов
Субтитры: Danish, Finnish, Norwegian, Swedish

Семпл
Общее
Уникальный идентификатор : 249590730171397086437117293807731485685 (0xBBC56D15678DB022BF8E62066CA42BF5)
Полное имя : D:Фильмы____Bodom (2016) BDRip 1080p.mkv
Формат : Matroska
Версия формата : Version 4 / Version 2
Размер файла : 8,63 Гбайт
Продолжительность : 1 ч. 24 м.
Общий поток : 14,7 Мбит/сек
Название фильма : Bodom 2016 1080p BluRay DD5.1 x264-DON
Дата кодирования : UTC 2017-01-02 21:31:15
Программа кодирования : mkvmerge v9.5.0 ('Quiet Fire') 64bit
Библиотека кодирования : libebml v1.3.4 + libmatroska v1.4.5

Видео
Идентификатор : 1
Формат : AVC
Формат/Информация : Advanced Video Codec
Профиль формата : [email protected]
Параметр CABAC формата : Да
Параметр ReFrames формата : 5 кадров
Идентификатор кодека : V_MPEG4/ISO/AVC
Продолжительность : 1 ч. 24 м.
Битрейт : 13,8 Мбит/сек
Ширина : 1920 пикселей
Высота : 808 пикселей
Соотношение сторон : 2,40:1
Режим частоты кадров : Постоянный
Частота кадров : 24,000 кадра/сек
Цветовое пространство : YUV
Субдискретизация насыщенности : 4:2:0
Битовая глубина : 8 бит
Тип развёртки : Прогрессивная
Бит/(Пиксели*Кадры) : 0.371
Размер потока : 8,14 Гбайт (94%)
Заголовок : Bodom 2016 1080p BluRay DD5.1 x264-DON
Библиотека кодирования : x264 core 148 r2744+55 950084e t_mod_Custom [8-bit@all X86_64]
Настройки программы : cabac=1 / ref=5 / deblock=1:-3:-3 / analyse=0x3:0x133 / me=umh / subme=11 / psy=1 / fade_compensate=0.00 / psy_rd=1.00:0.00 / mixed_ref=1 / me_range=32 / chroma_me=1 / trellis=2 / 8x8dct=1 / cqm=0 / deadzone=21,11 / fast_pskip=0 / chroma_qp_offset=0 / threads=12 / lookahead_threads=3 / sliced_threads=0 / nr=0 / decimate=0 / interlaced=0 / bluray_compat=0 / constrained_intra=0 / fgo=0 / bframes=10 / b_pyramid=2 / b_adapt=2 / b_bias=0 / direct=3 / weightb=1 / open_gop=0 / weightp=2 / keyint=250 / keyint_min=24 / scenecut=40 / intra_refresh=0 / rc=crf / mbtree=0 / crf=17.0000 / qcomp=0.60 / qpmin=0:0:0 / qpmax=69:69:69 / qpstep=4 / ip_ratio=1.40 / pb_ratio=1.30 / aq=3:1.10 / aq-sensitivity=10.00 / aq-factor=1.00:1.00:1.00 / aq2=0 / aq3=0 / zones=115282,121412,crf=22
Язык : Finnish
Default : Да
Forced : Нет

Аудио #1
Идентификатор : 2
Формат : AC-3
Формат/Информация : Audio Coding 3
Расширение режима : CM (complete main)
Параметр Endianness формата : Big
Идентификатор кодека : A_AC3
Продолжительность : 1 ч. 24 м.
Вид битрейта : Постоянный
Битрейт : 192 Кбит/сек
Каналы : 2 канала
Расположение каналов : Front: L R
Частота : 44,1 КГц
Частота кадров : 28,711 кадров/сек (1536 spf)
Битовая глубина : 16 бит
Метод сжатия : С потерями
Размер потока : 116 Мбайт (1%)
Заголовок : xixidok
Язык : Russian
Default : Да
Forced : Нет

Аудио #2
Идентификатор : 3
Формат : AC-3
Формат/Информация : Audio Coding 3
Расширение режима : CM (complete main)
Параметр Endianness формата : Big
Идентификатор кодека : A_AC3
Продолжительность : 1 ч. 24 м.
Вид битрейта : Постоянный
Битрейт : 640 Кбит/сек
Каналы : 6 каналов
Расположение каналов : Front: L C R, Side: L R, LFE
Частота : 48,0 КГц
Частота кадров : 31,250 кадров/сек (1536 spf)
Битовая глубина : 16 бит
Метод сжатия : С потерями
Размер потока : 386 Мбайт (4%)
Заголовок : Finnish AC-3 5.1
Язык : Finnish
Default : Нет
Forced : Нет

Текст #1
Идентификатор : 4
Формат : UTF-8
Идентификатор кодека : S_TEXT/UTF8
Идентификатор кодека/Информация : UTF-8 Plain Text
Продолжительность : 1 ч. 17 м.
Битрейт : 25 бит/сек
Count of elements : 531
Размер потока : 14,3 Кбайт (0%)
Заголовок : Danish
Язык : Danish
Default : Нет
Forced : Нет

Текст #2
Идентификатор : 5
Формат : UTF-8
Идентификатор кодека : S_TEXT/UTF8
Идентификатор кодека/Информация : UTF-8 Plain Text
Продолжительность : 1 ч. 17 м.
Битрейт : 28 бит/сек
Count of elements : 526
Размер потока : 15,8 Кбайт (0%)
Заголовок : Finnish
Язык : Finnish
Default : Нет
Forced : Нет

Текст #3
Идентификатор : 6
Формат : UTF-8
Идентификатор кодека : S_TEXT/UTF8
Идентификатор кодека/Информация : UTF-8 Plain Text
Продолжительность : 1 ч. 17 м.
Битрейт : 24 бит/сек
Count of elements : 532
Размер потока : 13,9 Кбайт (0%)
Заголовок : Norwegian
Язык : Norwegian
Default : Нет
Forced : Нет

Текст #4
Идентификатор : 7
Формат : UTF-8
Идентификатор кодека : S_TEXT/UTF8
Идентификатор кодека/Информация : UTF-8 Plain Text
Продолжительность : 1 ч. 17 м.
Битрейт : 25 бит/сек
Count of elements : 532
Размер потока : 14,4 Кбайт (0%)
Заголовок : Swedish
Язык : Swedish
Default : Нет
Forced : Нет

Меню
00:00:00.000 : en:00:00:00.000
00:08:10.083 : en:00:08:10.083
00:16:48.542 : en:00:16:48.542
00:27:17.125 : en:00:27:17.125
00:39:15.250 : en:00:39:15.250
00:53:01.000 : en:00:53:01.000
01:05:14.750 : en:01:05:14.750
01:18:41.333 : en:01:18:41.333


Внимание! AdBlock блокирует показ скриншотов, все вопросы к разработчикам )))

Трекер:  [ 03-Янв-2017 05:30 ]

  

Скачать .torrent

Размер .torrent файла 22 KB


Размер: 8.63 GB
Хэш (hash) релиза: 00de2cb71f2229e8bd9950c7f9fca7e0d4433269
Подписка на обновления:

Торренты, похожие на Озеро Бодом Bodom скачать торрент

Форум Название Автор Размер S L Добавлен
Зарубежные фильмы 2016-2019 (Новинки зарубежного кино) ·· Озеро Бодом / Bodom (Танели Мустонен / Taneli Mustonen) [2016, Финляндия, Эстония, ужасы, BDRip] Galfimbul 785893376749 MB 0 0 1483519331

11:42

4-Янв-17

Зарубежные фильмы до 2016 ·· Озеро Бодом / Bodom (Танели Мустонен / Taneli Mustonen) [2016, Финляндия, Эстония, ужасы, BDRip 1080p] AVO (Дольский) + Original Fin + Sub Eng, Fin, Dan, Swe, Nor Galfimbul 76362442447.11 GB 0 0 1483447810

15:50

3-Янв-17

Зарубежные фильмы до 2016 ·· Озеро Бодом / Bodom (Танели Мустонен / Taneli Mustonen) [2016, Финляндия, Эстония, ужасы, BDRemux 1080p] AVO (Дольский) + Original Fin + Sub Eng, Fin, Dan, Swe, Nor Galfimbul 2300650238021.43 GB 0 0 1483447806

15:50

3-Янв-17

Зарубежные фильмы 2016-2019 (Новинки зарубежного кино) ·· Озеро Бодом / Bodom (Танели Мустонен) [2016, ужасы, BDRip] Galfimbul 14808268801.38 GB 0 0 1483414810

06:40

3-Янв-17

Зарубежные фильмы 2016-2019 (Новинки зарубежного кино) ·· Озеро Бодом / Bodom (Танели Мустонен) [2016, ужасы, BDRip 720р] Galfimbul 40022768363.73 GB 0 0 1483414804

06:40

3-Янв-17

Зарубежные фильмы 2016-2019 (Новинки зарубежного кино) ·· Озеро Бодом / Bodom (Танели Мустонен) [2016, ужасы, WEB-DLRip] Galfimbul 14548429631.35 GB 0 0 1483391932

00:18

3-Янв-17

Еще никто не оставлял запись к записи скачать торрент Озеро Бодом Bodom . Будь первым!

!Обратная связь