Скачать через торрент Девушка в поезде The Girl on the Train Фильм бесплатно в хорошем качестве torrent

Скачивайте на UnionPeer.org фильмы через торрент без регистрации. Новинки кино в хорошем качестве через торрент. На UnionPeer.org можно скачать через торрент фильмы 2014 и 2015 годов. Самые новые фильмы.

Скачать торрент Девушка в поезде The Girl on the Train бесплатно через .torrent фильм мультфильм сериал

Статистика раздачи
Размер:  4.91 GB   |    Зарегистрирован:  7 лет 1 месяц   |    .torrent скачан:  200 раз   |   
Раздают:  1  
 

Скачать Девушка в поезде / The Girl on the Train (Тейт Тейлор / Tate Taylor) [2016, США, триллер, драма, детектив, BDRip 720p] Dub (iTunes) + Sub Eng + Original Eng через torrent

 
 
Автор Сообщение

Galfimbul

avatar Galfimbul


Девушка в поезде / The Girl on the Train

Страна: США
Студия: Amblin Entertainment, DreamWorks SKG, Marc Platt Productions
Жанр: триллер, драма, детектив
Год выпуска: 2016
Продолжительность: 01:52:05

Перевод: Профессиональный (дублированный) iTunes
Cубтитры: нет
Оригинальная аудиодорожка: английский

Режиссер: Тейт Тейлор / Tate Taylor

В ролях: Эмили Блант, Хейли Беннетт, Ребекка Фергюсон, Джастин Теру, Люк Эванс, Эдгар Рамирес, Лора Припон, Эллисон Дженни, Даррен Голдштейн, Лиза Кудроу

Описание: Каждый день поезд проносит Рэйчел мимо очаровательного коттеджа, где живет идеальная на первый взгляд пара. Но однажды идиллия разрушится – прекрасная незнакомка бесследно исчезнет. Рэйчел окажется втянута в весьма запутанную историю, ведь только она видела из окна то, что было скрыто ото всех.

Сэмпл: https://cloud.mail.ru/public/Hffv/fNy1cJxyY

Тип релиза: BDRip 720p
Контейнер: MKV

Видео: MPEG-4 AVC, 5500 Кбит/с, 1280x692, 23,976 fps
Аудио: Rus, AC3, 384 kb/s (6 ch), 48 kHz
Аудио 2: Eng, AC3, 384 kb/s (6 ch), 48 kHz
Формат субтитров: softsub (SRT)
Общее
Уникальный идентификатор : 224105724535888696618264287319439087277 (0xA899314B8FBC7EEC9EB1A6B85C3696AD)
Полное имя : The.Girl.on.the.Train.2016.BDRip.720p.mkv
Формат : Matroska
Версия формата : Version 4 / Version 2
Размер файла : 4,91 Гбайт
Продолжительность : 1 ч. 52 м.
Общий поток : 6269 Кбит/сек
Дата кодирования : UTC 2017-01-05 14:48:32
Программа кодирования : mkvmerge v9.7.1 ('Pandemonium') 64bit
Библиотека кодирования : libebml v1.3.4 + libmatroska v1.4.5

Видео
Идентификатор : 1
Формат : AVC
Формат/Информация : Advanced Video Codec
Профиль формата : [email protected]
Параметр CABAC формата : Да
Параметр ReFrames формата : 12 кадров
Идентификатор кодека : V_MPEG4/ISO/AVC
Продолжительность : 1 ч. 52 м.
Битрейт : 5500 Кбит/сек
Ширина : 1280 пикселей
Высота : 692 пикселя
Соотношение сторон : 1,85:1
Режим частоты кадров : Постоянный
Частота кадров : 23,976 (24000/1001) кадра/сек
Цветовое пространство : YUV
Субдискретизация насыщенности : 4:2:0
Битовая глубина : 8 бит
Тип развёртки : Прогрессивная
Бит/(Пиксели*Кадры) : 0.259
Размер потока : 4,31 Гбайт (88%)
Библиотека кодирования : x264 core 148 r2665kMod a01e339
Настройки программы : cabac=1 / ref=12 / deblock=1:-3:-3 / analyse=0x3:0x133 / me=umh / subme=11 / psy=1 / fade_compensate=0.00 / psy_rd=1.05:0.00 / mixed_ref=1 / me_range=32 / chroma_me=1 / trellis=2 / 8x8dct=1 / cqm=0 / deadzone=21,11 / fast_pskip=0 / chroma_qp_offset=-2 / threads=22 / lookahead_threads=3 / sliced_threads=0 / nr=0 / decimate=0 / interlaced=0 / bluray_compat=0 / constrained_intra=0 / fgo=0 / bframes=8 / b_pyramid=2 / b_adapt=2 / b_bias=0 / direct=3 / weightb=1 / open_gop=0 / weightp=2 / keyint=240 / keyint_min=24 / scenecut=40 / intra_refresh=0 / rc=2pass / mbtree=0 / bitrate=5500 / ratetol=1.0 / qcomp=0.70 / qpmin=0 / qpmax=69 / qpstep=4 / cplxblur=20.0 / qblur=0.5 / ip_ratio=1.20 / pb_ratio=1.20 / aq=3:0.85
Язык : English
Default : Да
Forced : Нет

Аудио #1
Идентификатор : 2
Формат : AC-3
Формат/Информация : Audio Coding 3
Расширение режима : CM (complete main)
Параметр Endianness формата : Big
Идентификатор кодека : A_AC3
Продолжительность : 1 ч. 52 м.
Вид битрейта : Постоянный
Битрейт : 384 Кбит/сек
Каналы : 6 каналов
Расположение каналов : Front: L C R, Side: L R, LFE
Частота : 48,0 КГц
Частота кадров : 31,250 кадров/сек (1536 spf)
Метод сжатия : С потерями
Размер потока : 308 Мбайт (6%)
Заголовок : iTunes
Язык : Russian
Default : Да
Forced : Нет

Аудио #2
Идентификатор : 3
Формат : AC-3
Формат/Информация : Audio Coding 3
Расширение режима : CM (complete main)
Параметр Endianness формата : Big
Идентификатор кодека : A_AC3
Продолжительность : 1 ч. 52 м.
Вид битрейта : Постоянный
Битрейт : 384 Кбит/сек
Каналы : 6 каналов
Расположение каналов : Front: L C R, Side: L R, LFE
Частота : 48,0 КГц
Частота кадров : 31,250 кадров/сек (1536 spf)
Метод сжатия : С потерями
Размер потока : 308 Мбайт (6%)
Заголовок : Original
Язык : English
Default : Нет
Forced : Нет

Текст
Идентификатор : 4
Формат : UTF-8
Идентификатор кодека : S_TEXT/UTF8
Идентификатор кодека/Информация : UTF-8 Plain Text
Продолжительность : 1 ч. 44 м.
Битрейт : 48 бит/сек
Count of elements : 1334
Размер потока : 37,3 Кбайт (0%)
Заголовок : Full
Язык : English
Default : Нет
Forced : Нет

Меню
00:00:00.000 : en:00:00:00.000
00:06:01.778 : en:00:06:01.778
00:09:29.903 : en:00:09:29.903
00:18:15.970 : en:00:18:15.970
00:25:26.150 : en:00:25:26.150
00:32:04.506 : en:00:32:04.506
00:37:04.973 : en:00:37:04.973
00:44:52.315 : en:00:44:52.315
00:49:22.459 : en:00:49:22.459
00:55:07.012 : en:00:55:07.012
00:59:36.031 : en:00:59:36.031
01:03:34.811 : en:01:03:34.811
01:09:25.787 : en:01:09:25.787
01:14:36.430 : en:01:14:36.430
01:19:08.702 : en:01:19:08.702
01:23:44.728 : en:01:23:44.728
01:28:07.491 : en:01:28:07.491
01:33:49.457 : en:01:33:49.457
01:38:54.554 : en:01:38:54.554
01:45:55.182 : en:01:45:55.182


Внимание! AdBlock блокирует показ скриншотов, все вопросы к разработчикам )))
Трекер:  [ 05-Янв-2017 19:30 ]

  

Скачать .torrent

Размер .torrent файла 25 KB


Размер: 4.91 GB
Хэш (hash) релиза: bda3496b9c745ea713ff761b9efd815b19aad218
Подписка на обновления:

Торренты, похожие на Девушка в поезде The Girl on the Train скачать торрент

Форум Название Автор Размер S L Добавлен
Зарубежные фильмы 2016-2019 (Новинки зарубежного кино) ·· Девушка в поезде / The Girl on the Train (2016) BDRip 1080p от KORSAR | D, A Galfimbul 1230887222911.46 GB 0 0 1580874620

06:50

5-Фев-20

Зарубежные фильмы до 2016 ·· Девушка в поезде / The Girl on the Train (Тейт Тейлор / Tate Taylor) [2016, США, Триллер, драма, криминал, детектив, DVD5 (сжатый)] исх. R5, Dub + Sub Rus + Original Eng Galfimbul 46975283204.37 GB 0 0 1527580890

11:01

29-Май-18

Зарубежные фильмы до 2016 ·· Девушка в поезде / The Girl on the Train (Тейт Тейлор / Tate Taylor) [2016, США, Триллер, драма, криминал, детектив, DVD9] R5 Dub + Sub Rus + Original Eng Galfimbul 83412930567.77 GB 0 0 1524751352

17:02

26-Апр-18

Зарубежные фильмы 2016-2019 (Новинки зарубежного кино) ·· Девушка в поезде / The Girl on the Train (Тейт Тейлор / Tate Taylor) [2016, США, триллер, драма, детектив, HDRip] AVO (Немахов) Galfimbul 15686164481.46 GB 0 0 1508868090

21:01

24-Окт-17

Зарубежные фильмы 2016-2019 (Новинки зарубежного кино) ·· Девушка в поезде / The Girl on the Train (Тейт Тейлор / Tate Taylor) [2016, США, триллер, драма, детектив, BDRip] AVO (Гаврилов) Galfimbul 15660032001.46 GB 0 0 1505196083

09:01

12-Сен-17

Зарубежные фильмы до 2016 ·· Девушка в поезде / The Girl on the Train (Тейт Тейлор / Tate Taylor) [2016, США, триллер, драма, детектив, BDRemux 1080p] Dub + Original (Eng) + Sub (Rus, Eng) Galfimbul 3190923155629.72 GB 0 0 1491238519

19:55

3-Апр-17

Трейлеры и дополнительные материалы ·· Девушка в Поезде / The Girl on the Train (Тейт Тейлор / Tate Taylor) [2016, Триллер | Детектив, BDRip 720p] дополнительные материалы Galfimbul 1044547460996 MB 0 0 1486313483

19:51

5-Фев-17

Зарубежные фильмы 2016-2019 (Новинки зарубежного кино) ·· Девушка в поезде / The Girl on the Train (Тейт Тейлор / Tate Taylor) [2016, США, триллер, драма, детектив, DVD9] Custom Galfimbul 76789043207.15 GB 0 0 1486289702

13:15

5-Фев-17

Зарубежные фильмы до 2016 ·· Девушка в поезде / The Girl on the Train (Тейт Тейлор / Tate Taylor) [2016, США, триллер, драма, детектив, BDRip 720p] Dub + Sub Rus, Eng + Original Eng Galfimbul 100875943309.39 GB 0 0 1486053504

19:38

2-Фев-17

Зарубежные фильмы до 2016 ·· Девушка в поезде / The Girl on the Train (Тейт Тейлор / Tate Taylor) [2016, США, триллер, драма, детектив, Blu-ray disc 1080p] [EUR] Dub + Sub Rus, Eng + Original Eng Galfimbul 4548905229042.36 GB 1 1 1485708924

19:55

29-Янв-17

Зарубежные фильмы до 2016 ·· Девушка в поезде / The Girl on the Train (Тейт Тейлор / Tate Taylor) [2016, США, триллер, драма, детектив, BDRip 1080p] Dub + Sub Rus, Eng + Original Eng Galfimbul 1793491208416.7 GB 0 0 1485507759

12:02

27-Янв-17

Зарубежные фильмы 2016-2019 (Новинки зарубежного кино) ·· Девушка в поезде / The Girl on the Train (Тейт Тейлор / Tate Taylor) [2016, США, триллер, драма, детектив, Blu-Ray EUR] Лицензия Galfimbul 4548905229042.36 GB 0 0 1485493827

08:10

27-Янв-17

Зарубежные фильмы 2016-2019 (Новинки зарубежного кино) ·· Девушка в поезде / The Girl on the Train (Тейт Тейлор / Tate Taylor) [2016, США, триллер, драма, детектив, HDRip] Dub + Original + Subs (rus,eng) Galfimbul 23534679352.19 GB 0 0 1485431589

14:53

26-Янв-17

Зарубежные фильмы 2016-2019 (Новинки зарубежного кино) ·· Девушка в поезде / The Girl on the Train (Тейт Тейлор / Tate Taylor) [2016, США, триллер, драма, детектив, BDRip-AVC] Dub + Original + Sub (rus, eng) Galfimbul 23150032232.16 GB 0 0 1485421034

11:57

26-Янв-17

Зарубежные фильмы 2016-2019 (Новинки зарубежного кино) ·· Девушка в поезде / The Girl on the Train (Тейт Тейлор / Tate Taylor) [2016, США, триллер, драма, детектив, HDRip-AVC] Dub + Original + Sub (eng) Galfimbul 23503351312.19 GB 0 0 1484234816

18:26

12-Янв-17

Зарубежные фильмы 2016-2019 (Новинки зарубежного кино) ·· Девушка в поезде / The Girl on the Train (Тейт Тейлор / Tate Taylor) [2016, США, триллер, драма, детектив, HDRip] Dub + Original Galfimbul 22994247682.14 GB 0 0 1484234803

18:26

12-Янв-17

Зарубежные фильмы до 2016 ·· Девушка в поезде / The Girl on the Train (Тейт Тейлор / Tate Taylor) [2016, США, триллер, драма, детектив, BDRip 1080p] Dub (iTunes) + Sub Eng + Original Eng Galfimbul 1251896873011.66 GB 0 0 1483642240

21:50

5-Янв-17

Зарубежные фильмы 2016-2019 (Новинки зарубежного кино) ·· Девушка в поезде / The Girl on the Train (Тейт Тейлор / Tate Taylor) [2016, США, триллер, драма, детектив, WEB-DLRip] Dub (iTunes) Galfimbul 15659622401.46 GB 0 0 1483442270

14:17

3-Янв-17

Зарубежные фильмы 2016-2019 (Новинки зарубежного кино) ·· Девушка в поезде / The Girl on the Train (Тейт Тейлор / Tate Taylor) [2016, США, триллер, драма, детектив, WEB-DLRip] Dub (iTunes) Galfimbul 783528464747 MB 0 0 1483442264

14:17

3-Янв-17

KAPbEP

[color=#3333FF]:босс:

Хотите добавить комментарий к записи скачать торрент Девушка в поезде The Girl on the Train

!Обратная связь