Скачать через торрент Капитан Фантастик Captain Fantastic Фильм бесплатно в хорошем качестве torrent

Скачивайте на UnionPeer.org фильмы через торрент без регистрации. Новинки кино в хорошем качестве через торрент. На UnionPeer.org можно скачать через торрент фильмы 2014 и 2015 годов. Самые новые фильмы.

Скачать торрент Капитан Фантастик Captain Fantastic бесплатно через .torrent фильм мультфильм сериал

Статистика раздачи
Размер:  14.08 GB   |    Зарегистрирован:  7 лет 1 месяц   |    .torrent скачан:  50 раз   |   
Раздают:  1  
   
 
Автор Сообщение

Galfimbul

avatar Galfimbul


Капитан Фантастик / Captain Fantastic
Страна: США
Студия: Electric City Entertainment, Post Haste Sound, ShivHans Pictures
Жанр: Драма, мелодрама, комедия
Год выпуска: 2016
Продолжительность: 01:59:29

Перевод: Профессиональный (двухголосый закадровый) - Студия "Нарышкин" (текст читали Инга Сметанина и Алексей Черных) (iTunes)
Cубтитры: Русские (SDH), английские (полные, SDH), французские, португальские, испанские
Оригинальная аудиодорожка: Английский

Режиссер: Мэтт Росс / Matt Ross

В ролях: Вигго Мортенсен, Джордж МакКэй, Саманта Ислер, Анналиса Бассо, Николас Хэмилтон, Шри Крукс, Чарли Шотуэлл, Трин Миллер, Кэтрин Хан, Стив Зан, Элайджа Стивенсон, Тедди Ван Ии, Эрин Мориарти, Мисси Пайл, Фрэнк Ланджелла, Майк Миллер

Описание: Они говорят на нескольких языках, знают квантовую физику и разбираются в философии. Они умеют охотиться и обращаться с оружием. Они живут в лесу в полной гармонии с природой. Лишь стечение обстоятельств заставляет их покинуть родной дом и отправиться в большой город. Что будет, когда они столкнутся с цивилизацией, когда на них обрушится первая любовь и мир гаджетов и социальных сетей?

Дополнительная информация:
Автор релиза -
Источник видео - Captain.Fantastic.2016.1080p.BluRay.DD5.1.x264-CRiME
Сохранены чаптеры с BD
За русские субтитры спасибо Janetta, рип и синхронизация субтитров - ylnian



Сэмпл: https://yadi.sk/i/3W4nRW1v38LLJ7

Качество видео: BDRip 1080p
Формат видео: MKV

Видео: MPEG-4, 1920x800 (2,40:1), 23.976 fps, 15000 kbps, 0.406 bit/pixel
Аудио 1: Русский AC3, 48000 Гц, 6ch, 384 kbps
Аудио 2: Английский DTS 5.1 / 48 kHz / 1509 kbps / 24-bit
Формат субтитров: softsub (SRT)
x264 [info]: frame I:1360 Avg QP:15.50 size:216551
x264 [info]: frame P:36981 Avg QP:16.87 size:122276
x264 [info]: frame B:133552 Avg QP:17.58 size: 64383
x264 [info]: consecutive B-frames: 1.7% 2.7% 5.0% 34.0% 13.7% 22.1% 8.9% 8.9% 1.2% 1.8%

Общее
Уникальный идентификатор : 175246210268544059019321110098387235971 (0x83D731411A9AF699BDC1864C1F757483)
Полное имя : E:\Captain.Fantastic.2016.BDRip.1080p-ylnian.mkv
Формат : Matroska
Версия формата : Version 4 / Version 2
Размер файла : 14,1 Гбайт
Продолжительность : 1 ч. 59 м.
Общий поток : 16,9 Мбит/сек
Название фильма : Captain.Fantastic.2016.BDRip.1080p-ylnian
Дата кодирования : UTC 2017-01-11 05:06:28
Программа кодирования : mkvmerge v9.3.1 ('Mask Machine') 64bit
Библиотека кодирования : libebml v1.3.4 + libmatroska v1.4.5

Видео
Идентификатор : 1
Формат : AVC
Формат/Информация : Advanced Video Codec
Профиль формата : [email protected]
Параметр CABAC формата : Да
Параметр ReFrames формата : 5 кадров
Идентификатор кодека : V_MPEG4/ISO/AVC
Продолжительность : 1 ч. 59 м.
Битрейт : 15,0 Мбит/сек
Ширина : 1920 пикселей
Высота : 800 пикселей
Соотношение сторон : 2,40:1
Режим частоты кадров : Постоянный
Частота кадров : 23,976 (24000/1001) кадра/сек
Цветовое пространство : YUV
Субдискретизация насыщенности : 4:2:0
Битовая глубина : 8 бит
Тип развёртки : Прогрессивная
Бит/(Пиксели*Кадры) : 0.406
Размер потока : 12,5 Гбайт (89%)
Заголовок : Captain.Fantastic.2016.1080p.BluRay.DD5.1.x264-CRiME
Библиотека кодирования : x264 core 148 r2721 72d53ab
Настройки программы : cabac=1 / ref=5 / deblock=1:-3:-3 / analyse=0x3:0x133 / me=umh / subme=10 / psy=1 / psy_rd=1.05:0.00 / mixed_ref=1 / me_range=64 / chroma_me=1 / trellis=2 / 8x8dct=1 / cqm=0 / deadzone=21,11 / fast_pskip=0 / chroma_qp_offset=-2 / threads=6 / lookahead_threads=1 / sliced_threads=0 / nr=0 / decimate=0 / interlaced=0 / bluray_compat=0 / constrained_intra=0 / bframes=9 / b_pyramid=2 / b_adapt=2 / b_bias=0 / direct=3 / weightb=1 / open_gop=0 / weightp=2 / keyint=250 / keyint_min=24 / scenecut=40 / intra_refresh=0 / rc_lookahead=60 / rc=crf / mbtree=0 / crf=17.5 / qcomp=0.65 / qpmin=0 / qpmax=69 / qpstep=4 / vbv_maxrate=62500 / vbv_bufsize=78125 / crf_max=0.0 / nal_hrd=none / filler=0 / ip_ratio=1.25 / pb_ratio=1.15 / aq=3:0.75 / zones=0,1537,crf=13.5/44530,44603,crf=16.5/44849,45003,crf=16.5/63896,63938,crf=16.5/64947,65008,crf=16.5/104391,104468,crf=17/108375,108447,crf=17/128704,128770,crf=15.5/130486,130664,crf=16/131369,131544,crf=16.0/131674,132062,crf=16/132138,132301,crf=16/132540,132627,crf=16/132688,132816,crf=16/132959,133185,crf=16/133293,133365,crf=16/136462,137780,crf=16/146579,146613,crf=13/162254,171892,crf=22
Язык : English
Default : Да
Forced : Да

Аудио #1
Идентификатор : 2
Формат : AC-3
Формат/Информация : Audio Coding 3
Расширение режима : CM (complete main)
Параметр Endianness формата : Big
Идентификатор кодека : A_AC3
Продолжительность : 1 ч. 59 м.
Вид битрейта : Постоянный
Битрейт : 384 Кбит/сек
Каналы : 6 каналов
Расположение каналов : Front: L C R, Side: L R, LFE
Частота : 48,0 КГц
Частота кадров : 31,250 кадров/сек (1536 spf)
Метод сжатия : С потерями
Размер потока : 328 Мбайт (2%)
Заголовок : DVO [iTunes] (AC3 5.1 384 kbps)
Язык : Russian
Default : Да
Forced : Нет

Аудио #2
Идентификатор : 3
Формат : DTS
Формат/Информация : Digital Theater Systems
Режим : 16
Параметр Endianness формата : Big
Идентификатор кодека : A_DTS
Продолжительность : 1 ч. 59 м.
Вид битрейта : Постоянный
Битрейт : 1509 Кбит/сек
Каналы : 6 каналов
Расположение каналов : Front: L C R, Side: L R, LFE
Частота : 48,0 КГц
Частота кадров : 93,750 кадра/сек (512 spf)
Битовая глубина : 24 бит
Метод сжатия : С потерями
Размер потока : 1,26 Гбайт (9%)
Заголовок : DTS 5.1 1509 kbps
Язык : English
Default : Нет
Forced : Нет

Текст #1
Идентификатор : 4
Формат : UTF-8
Идентификатор кодека : S_TEXT/UTF8
Идентификатор кодека/Информация : UTF-8 Plain Text
Продолжительность : 1 ч. 51 м.
Битрейт : 69 бит/сек
Count of elements : 1036
Размер потока : 56,7 Кбайт (0%)
Заголовок : SDH
Язык : Russian
Default : Нет
Forced : Нет

Текст #2
Идентификатор : 5
Формат : UTF-8
Идентификатор кодека : S_TEXT/UTF8
Идентификатор кодека/Информация : UTF-8 Plain Text
Продолжительность : 1 ч. 46 м.
Битрейт : 45 бит/сек
Count of elements : 1166
Размер потока : 35,6 Кбайт (0%)
Заголовок : full
Язык : English
Default : Нет
Forced : Нет

Текст #3
Идентификатор : 6
Формат : UTF-8
Идентификатор кодека : S_TEXT/UTF8
Идентификатор кодека/Информация : UTF-8 Plain Text
Продолжительность : 1 ч. 51 м.
Битрейт : 48 бит/сек
Count of elements : 1324
Размер потока : 39,3 Кбайт (0%)
Заголовок : SDH
Язык : English
Default : Нет
Forced : Нет

Текст #4
Идентификатор : 7
Формат : UTF-8
Идентификатор кодека : S_TEXT/UTF8
Идентификатор кодека/Информация : UTF-8 Plain Text
Продолжительность : 1 ч. 54 м.
Битрейт : 45 бит/сек
Count of elements : 1165
Размер потока : 38,5 Кбайт (0%)
Язык : French
Default : Нет
Forced : Нет

Текст #5
Идентификатор : 8
Формат : UTF-8
Идентификатор кодека : S_TEXT/UTF8
Идентификатор кодека/Информация : UTF-8 Plain Text
Продолжительность : 1 ч. 48 м.
Битрейт : 44 бит/сек
Count of elements : 1028
Размер потока : 35,3 Кбайт (0%)
Язык : Portuguese
Default : Нет
Forced : Нет

Текст #6
Идентификатор : 9
Формат : UTF-8
Идентификатор кодека : S_TEXT/UTF8
Идентификатор кодека/Информация : UTF-8 Plain Text
Продолжительность : 1 ч. 50 м.
Битрейт : 44 бит/сек
Count of elements : 1206
Размер потока : 35,7 Кбайт (0%)
Язык : Spanish
Default : Нет
Forced : Нет

Меню
00:00:00.000 : en:00:00:00.000
00:05:14.272 : en:00:05:14.272
00:11:12.046 : en:00:11:12.046
00:17:34.220 : en:00:17:34.220
00:25:20.728 : en:00:25:20.728
00:31:37.187 : en:00:31:37.187
00:37:41.509 : en:00:37:41.509
00:40:25.548 : en:00:40:25.548
00:46:10.601 : en:00:46:10.601
00:54:03.449 : en:00:54:03.449
00:59:34.696 : en:00:59:34.696
01:08:21.431 : en:01:08:21.431
01:14:08.486 : en:01:14:08.486
01:20:18.647 : en:01:20:18.647
01:24:30.774 : en:01:24:30.774
01:30:19.331 : en:01:30:19.331
01:36:52.807 : en:01:36:52.807
01:43:03.719 : en:01:43:03.719
01:48:23.163 : en:01:48:23.163
01:52:47.344 : en:01:52:47.344


Внимание! AdBlock блокирует показ скриншотов, все вопросы к разработчикам )))
Трекер:  [ 12-Янв-2017 13:00 ]

  

Скачать .torrent

Размер .torrent файла 71 KB


Размер: 14.08 GB
Хэш (hash) релиза: 84e494e3da35b4162194781574c4e73a744cef19
Подписка на обновления:

Торренты, похожие на Капитан Фантастик Captain Fantastic скачать торрент

Форум Название Автор Размер S L Добавлен
Зарубежные фильмы до 2016 ·· Капитан Фантастик / Captain Fantastic (Мэтт Росс / Matt Ross) [2016, США, драма, мелодрама, комедия, BDRip 1080p] MVO (Первый канал) + DVO (Студия Нарышкин) + Original Eng + Sub Rus, Eng Galfimbul 1545867037114.4 GB 0 0 1492941733

13:02

23-Апр-17

Зарубежные фильмы 2016-2019 (Новинки зарубежного кино) ·· Капитан Фантастик / Captain Fantastic (Мэтт Росс / Matt Ross) [2016, США, драма, мелодрама, комедия, HDRip] MVO + Sub Eng + Original Eng Galfimbul 23428947512.18 GB 0 0 1477678172

21:09

28-Окт-16

Зарубежные фильмы 2016-2019 (Новинки зарубежного кино) ·· Капитан Фантастик / Captain Fantastic (Мэтт Росс / Matt Ross) [2016, США, драма, мелодрама, комедия, BDRip-AVC] MVO + Original + Sub (eng) Galfimbul 23895420472.23 GB 0 0 1477678128

21:08

28-Окт-16

Зарубежные фильмы до 2016 ·· Капитан Фантастик / Captain Fantastic (Мэтт Росс / Matt Ross) [2016, США, драма, мелодрама, комедия, BDRip 720p] MVO (iTunes) + Sub Eng + Original Eng Galfimbul 58467207275.45 GB 0 0 1476806261

18:57

18-Окт-16

Зарубежные фильмы 2016-2019 (Новинки зарубежного кино) ·· Капитан Фантастик / Captain Fantastic (Мэтт Росс / Matt Ross) [2016, США, Драма, мелодрама, комедия, HDRip] iTunes Galfimbul 15621488641.45 GB 0 0 1476441840

13:44

14-Окт-16

Зарубежные фильмы 2016-2019 (Новинки зарубежного кино) ·· Капитан Фантастик / Captain Fantastic (Мэтт Росс / Matt Ross) [2016, США, Драма, мелодрама, комедия, HDRip] iTunes Galfimbul 23439380482.18 GB 0 0 1476441829

13:43

14-Окт-16

Зарубежные фильмы 2016-2019 (Новинки зарубежного кино) ·· Капитан Фантастик / Captain Fantastic (Мэтт Росс / Matt Ross) [2016, США, Драма, мелодрама, комедия, WEB-DLRip-AVC] MVO (iTunes) Galfimbul 15739881751.47 GB 0 0 1472801097

10:24

2-Сен-16

Зарубежные фильмы 2016-2019 (Новинки зарубежного кино) ·· Капитан Фантастик / Captain Fantastic (Мэтт Росс / Matt Ross) [2016 г., США, Драма, мелодрама, комедия, WEB-DLRip] MVO (iTunes) Galfimbul 15694417921.46 GB 0 0 1472800148

10:09

2-Сен-16

Зарубежные фильмы 2016-2019 (Новинки зарубежного кино) ·· Капитан Фантастик / Captain Fantastic (Мэтт Росс / Matt Ross) [2016, США, драма, мелодрама, комедия, WEB-DLRip] MVO Galfimbul 782061568746 MB 0 0 1472800144

10:09

2-Сен-16

Зарубежные фильмы 2016-2019 (Новинки зарубежного кино) ·· Капитан Фантастик / Captain Fantastic (Мэтт Росс) [2016, драма, мелодрама, комедия, WEB-DL 720p] iTunes Galfimbul 39434546223.67 GB 0 0 1472789897

07:18

2-Сен-16

Зарубежные фильмы 2016-2019 (Новинки зарубежного кино) ·· Капитан Фантастик / Captain Fantastic (Мэтт Росс) [2016, драма, мелодрама, комедия, WEB-DL 1080p] iTunes Galfimbul 43864910244.09 GB 0 0 1472789892

07:18

2-Сен-16

Зарубежные фильмы 2016-2019 (Новинки зарубежного кино) ·· Капитан Фантастик / Captain Fantastic (Мэтт Росс) [2016, драма, мелодрама, комедия, WEB-DLRip] iTunes Galfimbul 22037360642.05 GB 0 0 1472789888

07:18

2-Сен-16

Зарубежные фильмы 2016-2019 (Новинки зарубежного кино) ·· Капитан Фантастик / Captain Fantastic (Мэтт Росс) [2016, драма, мелодрама, комедия, WEB-DLRip] iTunes Galfimbul 15624540161.46 GB 0 0 1472740972

17:42

1-Сен-16

Зарубежные фильмы 2016-2019 (Новинки зарубежного кино) ·· Капитан Фантастик / Captain Fantastic (Мэтт Росс) [2016, драма, мелодрама, комедия, WEB-DLRip 720p] Galfimbul 44446395424.14 GB 0 0 1471540328

20:12

18-Авг-16

Зарубежные фильмы 2016-2019 (Новинки зарубежного кино) ·· Капитан Фантастик / Captain Fantastic (Мэтт Росс) [2016, драма, мелодрама, комедия, WEB-DLRip] Galfimbul 14680883201.37 GB 0 0 1471536843

19:14

18-Авг-16

Еще никто не оставлял запись к записи скачать торрент Капитан Фантастик Captain Fantastic . Будь первым!

!Обратная связь