Скачать через торрент Ведьма из Блэр: Новая глава Blair Witch Фильм бесплатно в хорошем качестве torrent

Скачивайте на UnionPeer.org фильмы через торрент без регистрации. Новинки кино в хорошем качестве через торрент. На UnionPeer.org можно скачать через торрент фильмы 2014 и 2015 годов. Самые новые фильмы.

Скачать торрент Ведьма из Блэр: Новая глава Blair Witch бесплатно через .torrent фильм мультфильм сериал

Статистика раздачи
Размер:  745 MB   |    Зарегистрирован:  7 лет 4 месяца   |    .torrent скачан:  47 раз   |   
Раздают:  1  
 

Скачать Ведьма из Блэр: Новая глава / Blair Witch (Адам Вингард / Adam Wingard) [2016, США, Ужасы, триллер, BDRip] Dub через torrent

 
 
Автор Сообщение

Galfimbul

avatar Galfimbul


Ведьма из Блэр: Новая глава / Blair Witch

Страна: США
Жанр: Ужасы, триллер
Год выпуска: 2016
Продолжительность: 01:29:11

Перевод: Профессиональный (дублированный)
Cубтитры: нет
Оригинальная аудиодорожка: нет
Режиссер: Адам Вингард / Adam Wingard
В ролях: Джеймс Аллен МакКьюн, Калли Эрнандес, Корбин Рейд, Брэндон Скотт, Уэс Робинсон, Вэлори Керри
Описание: После обнаружения загадочной видеозаписи у Джеймса появляется надежда найти свою пропавшую сестру. Вместе с группой друзей он решается отправиться в лес Блэк Хиллз, известный по легенде о ведьме из Блэр. Но никакая самая страшная легенда не сравнится с тем кошмаром, который ждет их в реальности.
Качество видео: BDRip | Blair Witch (2016) 1080p BD-Remux HDClub
Формат видео: AVI

Видео: 688x368 (1.87:1), 23.976 fps, XviD build 73 ~1030 kbps avg, 0.17 bit/pixel
Аудио: 48 kHz, MPEG Layer 3, 2 ch, ~128.00 kbps avg
Сэмпл
Format                      : AVI
Format/Info                 : Audio Video Interleave
File size                   : 745 MiB
Duration                    : 1 h 29 min
Overall bit rate            : 1 168 kb/s
Writing application         : VirtualDubMod 1.5.10.3 | www.virtualdub-fr.org || (build 2550/release)
Writing library             : VirtualDubMod build 2550/release

Video
ID                          : 0
Format                      : MPEG-4 Visual
Format profile              : Advanced Simple@L5
Format settings, BVOP       : 1
Format settings, QPel       : No
Format settings, GMC        : No warppoints
Format settings, Matrix     : Custom
Codec ID                    : XVID
Codec ID/Hint               : XviD
Duration                    : 1 h 29 min
Bit rate                    : 1 031 kb/s
Width                       : 688 pixels
Height                      : 368 pixels
Display aspect ratio        : 1.85:1
Frame rate                  : 23.976 (24000/1001) FPS
Color space                 : YUV
Chroma subsampling          : 4:2:0
Bit depth                   : 8 bits
Scan type                   : Progressive
Compression mode            : Lossy
Bits/(Pixel*Frame)          : 0.170
Stream size                 : 658 MiB (88%)
Writing library             : XviD 73

Audio
ID                          : 1
Format                      : MPEG Audio
Format version              : Version 1
Format profile              : Layer 3
Codec ID                    : 55
Codec ID/Hint               : MP3
Duration                    : 1 h 29 min
Bit rate mode               : Constant
Bit rate                    : 128 kb/s
Channel(s)                  : 2 channels
Sampling rate               : 48.0 kHz
Compression mode            : Lossy
Stream size                 : 81.7 MiB (11%)
Alignment                   : Aligned on interleaves
Interleave, duration        : 42  ms (1.00 video frame)
Interleave, preload duratio : 504  ms
Writing library             : LAME3.99r
Encoding settings           : -m s -V 4 -q 2 -lowpass 17 -b 128


Внимание! AdBlock блокирует показ скриншотов, все вопросы к разработчикам )))

Трекер:  [ 12-Янв-2017 17:30 ]

  

Скачать .torrent

Размер .torrent файла 15 KB


Размер: 745 MB
Хэш (hash) релиза: 4538661782533049908b114020f0187e3e70a99f
Подписка на обновления:

Торренты, похожие на Ведьма из Блэр: Новая глава Blair Witch скачать торрент

Форум Название Автор Размер S L Добавлен
Зарубежные фильмы до 2016 ·%· Ведьма из Блэр: Новая глава / Blair Witch (Адам Вингард / Adam Wingard) [2016, Канада, США, Ужасы, триллер, DVD9] R5 Dub Galfimbul 63426949125.91 GB 0 0 1530975740

18:02

7-Июл-18

Зарубежные фильмы до 2016 ·· Ведьма из Блэр: Новая глава / Blair Witch (Адам Вингард / Adam Wingard) [2016, США, ужасы, триллер, Blu-ray disc 1080p] Dub (RUS) Galfimbul 1777614372216.56 GB 0 0 1487259896

18:44

16-Фев-17

Зарубежные фильмы 2016-2019 (Новинки зарубежного кино) ·· Ведьма из Блэр: Новая глава / Blair Witch (Адам Вингард / Adam Wingard) [2016, США, Ужасы, триллер, BDRip] Dub (iTunes) Galfimbul 15241694501.42 GB 0 0 1483516298

10:51

4-Янв-17

Зарубежные фильмы до 2016 ·· Ведьма из Блэр: Новая глава / Blair Witch (Адам Вингард / Adam Wingard) [2016, США, Ужасы, триллер, BDRip 720p] Dub (iTunes) + VO + Sub Rus, Eng + Original Eng Galfimbul 67086958476.25 GB 0 0 1483447047

15:37

3-Янв-17

Зарубежные фильмы 2016-2019 (Новинки зарубежного кино) ·· Ведьма из Блэр: Новая глава / Blair Witch (Адам Вингард) [2016, ужасы, триллер, HDRip] Line Galfimbul 14703595521.37 GB 0 0 1482676983

17:43

25-Дек-16

Зарубежные фильмы 2016-2019 (Новинки зарубежного кино) ·· Ведьма из Блэр: Новая глава / Blair Witch (Адам Вингард) [2016, ужасы, триллер, BDRip 1080p] звук с TS Galfimbul 68883499416.42 GB 0 0 1482342102

20:41

21-Дек-16

Зарубежные фильмы 2016-2019 (Новинки зарубежного кино) ·· Ведьма из Блэр: Новая глава / Blair Witch (Адам Вингард) [2016, ужасы, триллер, CAMRip] Galfimbul 14679080961.37 GB 0 0 1476553631

20:47

15-Окт-16

Зарубежные фильмы 2016-2019 (Новинки зарубежного кино) ·· Ведьма из Блэр: Новая глава / Blair Witch (Адам Вингард) [2016, ужасы, триллер, CAMRip] Galfimbul 14676869121.37 GB 0 0 1475550622

06:10

4-Окт-16

Еще никто не оставлял запись к записи скачать торрент Ведьма из Блэр: Новая глава Blair Witch . Будь первым!

!Обратная связь