Скачать через торрент Уиджи. Проклятие доски дьявола Ouija: Origin of Evil Фильм бесплатно в хорошем качестве torrent

Скачивайте на UnionPeer.org фильмы через торрент без регистрации. Новинки кино в хорошем качестве через торрент. На UnionPeer.org можно скачать через торрент фильмы 2014 и 2015 годов. Самые новые фильмы.

Скачать торрент Уиджи. Проклятие доски дьявола Ouija: Origin of Evil бесплатно через .torrent фильм мультфильм сериал

Статистика раздачи
Размер:  744 MB   |    Зарегистрирован:  7 лет 4 месяца   |    .torrent скачан:  53 раза   |   
Раздают:  1  
 

Скачать Уиджи. Проклятие доски дьявола / Ouija: Origin of Evil (Майк Флэнеган / Mike Flanagan) [2016, США, ужасы, триллер, HDRip] Dub (iTunes) через torrent

 
 
Автор Сообщение

Galfimbul

avatar Galfimbul


Уиджи. Проклятие доски дьявола / Ouija: Origin of Evil

Страна: США
Жанр: ужасы, триллер
Год выпуска: 2016
Продолжительность: 01:38:54

Перевод: Профессиональный (дублированный) iTunes
Cубтитры: нет
Оригинальная аудиодорожка: нет
Режиссер:
Майк Флэнеган / Mike Flanagan
В ролях:
Анналиса Бассо, Элизабет Ризер, Лулу Уилсон, Генри Томас, Паркер Мак, Холли Чарлтон, Алексис Дж. Залл, Даг Джонс, Кейт Сигел, Сэм Андерсон
Описание:
Спиритическая доска Уиджи никогда не была просто игрой. Она служила порталом в мир мертвых. Столетиями она служила вратами между миром живых и царством мертвых. Но однажды духи выйдут из-под контроля, и первородное зло овладеет душой ребенка…
Качество видео: <a href="viewtopic.php?t=5336925" class="postLink">HDRip</a>
Формат видео: AVI

Видео: 688x368 (1.87:1), 23.976 fps, XviD build 73 ~914 kbps avg, 0.15 bit/pixel
Аудио: 48 kHz, MPEG Layer 3, 2 ch, ~128.00 kbps avg
Скачать сэмпл
Format                      : AVI
Format/Info                 : Audio Video Interleave
File size                   : 744 MiB
Duration                    : 1 h 38 min
Overall bit rate            : 1 052 kb/s
Writing application         : VirtualDubMod 1.5.10.3 | www.virtualdub-fr.org || (build 2550/release)
Writing library             : VirtualDubMod build 2550/release

Video
ID                          : 0
Format                      : MPEG-4 Visual
Format profile              : Advanced Simple@L5
Format settings, BVOP       : 1
Format settings, QPel       : No
Format settings, GMC        : No warppoints
Format settings, Matrix     : Custom
Codec ID                    : XVID
Codec ID/Hint               : XviD
Duration                    : 1 h 38 min
Bit rate                    : 915 kb/s
Width                       : 688 pixels
Height                      : 368 pixels
Display aspect ratio        : 1.85:1
Frame rate                  : 23.976 (24000/1001) FPS
Color space                 : YUV
Chroma subsampling          : 4:2:0
Bit depth                   : 8 bits
Scan type                   : Progressive
Compression mode            : Lossy
Bits/(Pixel*Frame)          : 0.151
Stream size                 : 647 MiB (87%)
Writing library             : XviD 73

Audio
ID                          : 1
Format                      : MPEG Audio
Format version              : Version 1
Format profile              : Layer 3
Codec ID                    : 55
Codec ID/Hint               : MP3
Duration                    : 1 h 38 min
Bit rate mode               : Constant
Bit rate                    : 128 kb/s
Channel(s)                  : 2 channels
Sampling rate               : 48.0 kHz
Compression mode            : Lossy
Stream size                 : 90.6 MiB (12%)
Alignment                   : Aligned on interleaves
Interleave, duration        : 42  ms (1.00 video frame)
Interleave, preload duratio : 504  ms
Writing library             : LAME3.99r
Encoding settings           : -m s -V 4 -q 2 -lowpass 17 -b 128


Внимание! AdBlock блокирует показ скриншотов, все вопросы к разработчикам )))

Трекер:  [ 12-Янв-2017 17:30 ]

  

Скачать .torrent

Размер .torrent файла 15 KB


Размер: 744 MB
Хэш (hash) релиза: 4c62082de0aa42cd0ce4f6b1eee504ad9b6ec724
Подписка на обновления:

Торренты, похожие на Уиджи. Проклятие доски дьявола Ouija: Origin of Evil скачать торрент

Форум Название Автор Размер S L Добавлен
Зарубежные фильмы до 2016 ·· Уиджи. Проклятие доски дьявола / Ouija: Origin of Evil (Майк Флэнеган / Mike Flanagan) [2016, США, ужасы, триллер, Blu-ray disc 1080p] Dub (CEE) + Sub Rus, Eng + Original Eng Galfimbul 4082088540738.02 GB 0 0 1487259996

18:46

16-Фев-17

Зарубежные фильмы до 2016 ·· Уиджи. Проклятие доски дьявола / Ouija: Origin of Evil (Майк Флэнеган / Mike Flanagan) [2016, США, ужасы, триллер, BDRip 1080p] Dub (BD CEE) + Sub Rus, Eng + Original Eng Galfimbul 1586868714814.78 GB 0 0 1487259989

18:46

16-Фев-17

Зарубежные фильмы 2016-2019 (Новинки зарубежного кино) ·· Уиджи. Проклятие доски дьявола / Ouija: Origin of Evil (Майк Флэнеган / Mike Flanagan) [2016, Япония, США, ужасы, триллер, BDRip-AVC] Dub + Original + Sub (rus, eng) Galfimbul 22780156322.12 GB 0 0 1486888329

11:32

12-Фев-17

Зарубежные фильмы до 2016 ·· Уиджи. Проклятие доски дьявола / Ouija: Origin of Evil (Майк Флэнеган / Mike Flanagan) [2016, США, ужасы, триллер, BDRip 720p] Dub (BD CEE) + Sub Rus, Eng + Original Eng Galfimbul 67835347066.32 GB 0 0 1486739440

18:10

10-Фев-17

Зарубежные фильмы 2016-2019 (Новинки зарубежного кино) ·· Уиджи. Проклятие доски дьявола / Ouija: Origin of Evil (Майк Флэнеган / Mike Flanagan) [2016, США, Япония, ужасы, триллер, BDRip-AVC] Dub + Original Eng + Sub Eng Galfimbul 15617460311.45 GB 0 0 1484234783

18:26

12-Янв-17

Зарубежные фильмы до 2016 ·· Уиджи. Проклятие доски дьявола / Ouija: Origin of Evil (Майк Флэнеган / Mike Flanagan) [2016, США, ужасы, триллер, BDRip 720p] Dub (iTunes) + Sub Eng + Original Eng Galfimbul 54860484125.11 GB 0 0 1483694200

12:16

6-Янв-17

Зарубежные фильмы 2016-2019 (Новинки зарубежного кино) ·· Уиджи. Проклятие доски дьявола / Ouija: Origin of Evil (Майк Флэнеган / Mike Flanagan) [2016, США, Япония, ужасы, триллер, Blu-Ray EUR 1080p] Лицензия Galfimbul 4082088540738.02 GB 1 1 1486716208

11:43

10-Фев-17

Зарубежные фильмы 2016-2019 (Новинки зарубежного кино) ·· Уиджи. Проклятие доски дьявола / Ouija: Origin of Evil (Майк Флэнеган / Mike Flanagan) [2016, США, ужасы, триллер, BDRip 1080p] iTunes Galfimbul 85015398967.92 GB 0 0 1483714512

17:55

6-Янв-17

Зарубежные фильмы 2016-2019 (Новинки зарубежного кино) ·· Уиджи. Проклятие доски дьявола / Ouija: Origin of Evil (Майк Флэнеган / Mike Flanagan) [2016, США, ужасы, триллер, WEB-DLRip] Dub (iTunes) Galfimbul 15691325441.46 GB 0 0 1483655125

01:25

6-Янв-17

Зарубежные фильмы до 2016 ·· Уиджи. Проклятие доски дьявола / Ouija: Origin of Evil (Майк Флэнеган / Mike Flanagan) [2016, США, ужасы, триллер, WEB-DL 1080p] Dub (iTunes) Galfimbul 39654165483.69 GB 0 0 1483618853

15:20

5-Янв-17

Зарубежные фильмы 2016-2019 (Новинки зарубежного кино) ·· Уиджи. Проклятие доски дьявола / Ouija: Origin of Evil (Майк Флэнеган) [2016 г., ужасы, триллер, WEB-DLRip] iTunes Galfimbul 781586920745 MB 0 0 1483578684

04:11

5-Янв-17

Зарубежные фильмы 2016-2019 (Новинки зарубежного кино) ·· Уиджи. Проклятие доски дьявола / Ouija: Origin of Evil (Майк Флэнеган) [2016 г., ужасы, триллер, WEB-DLRip] iTunes Galfimbul 15679367441.46 GB 0 0 1483575592

03:19

5-Янв-17

Зарубежные фильмы 2016-2019 (Новинки зарубежного кино) ·· Уиджи. Проклятие доски дьявола / Ouija: Origin of Evil (Майк Флэнеган) [2016 г., ужасы, триллер, WEB-DL 1080p] iTunes Galfimbul 39654165483.69 GB 0 0 1483562589

23:43

4-Янв-17

Зарубежные фильмы 2016-2019 (Новинки зарубежного кино) ·· Уиджи. Проклятие доски дьявола / Ouija: Origin of Evil (Майк Флэнеган) [2016 г., ужасы, триллер, WEBRip] Galfimbul 14676275201.37 GB 0 0 1478500880

09:41

7-Ноя-16

Еще никто не оставлял запись к записи скачать торрент Уиджи. Проклятие доски дьявола Ouija: Origin of Evil . Будь первым!

!Обратная связь