Скачать через торрент Кабадам Kabadam Фильм бесплатно в хорошем качестве torrent

Скачивайте на UnionPeer.org фильмы через торрент без регистрации. Новинки кино в хорошем качестве через торрент. На UnionPeer.org можно скачать через торрент фильмы 2014 и 2015 годов. Самые новые фильмы.

Скачать торрент Кабадам Kabadam бесплатно через .torrent фильм мультфильм сериал

Статистика раздачи
Размер:  1.62 GB   |    Зарегистрирован:  7 лет 4 месяца   |    .torrent скачан:  63 раза   |   
Раздают:  1  
 

Скачать Кабадам / Kabadam (Йоти Муруган) [2014, Мелодрама, драма, триллер, WEBRip 720p] Sub через torrent

 
 
Автор Сообщение

Galfimbul

avatar Galfimbul


Кабадам /Kabadam

Год выхода: 2014
Жанр: Мелодрама, драма, триллер
Режиссер: Йоти Муруган
В ролях: Сашин, Ангана Рой

О фильме:
Жизнь бизнесмена Вичу расцветает новыми красками после того, как он знакомится со своей суженой, простой и весёлой девушкой Падмини. Их отношения развиваются, день долгожданного события приближается, но однажды всё изменится.

Страна: Индия
Студия: Mountain Movie Makers
Продолжительность: 1:43:56
Перевод: Субтитры

Файл
Кодек: Xvid
Качество: WEBRip 720p
Видео: 1280 х 720, ~1897 Kbps
Звук: MP3, 2 ch, 320 Kbps
Субтитры: Русские вшитые

Семпл</a>
Формат : AVI
Формат/Информация : Audio Video Interleave
Профиль формата : OpenDML
Размер файла : 1,62 Гбайт
Общий поток : 2231 Кбит/сек
Программа кодирования : MEncoder UNKNOWN-4.6.2
Библиотека кодирования : MPlayer

Видео
Идентификатор : 0
Формат : MPEG-4 Visual
Профиль формата : Advanced Simple@L5
Параметр BVOP формата : 2
Параметр QPel формата : Нет
Параметр GMC формата : Без точки перехода
Параметр матрицы формата : Default (H.263)
Идентификатор кодека : XVID
Идентификатор кодека/Подсказка : XviD
Битрейт : 1897 Кбит/сек
Ширина : 1280 пикселей
Высота : 720 пикселей
Соотношение сторон : 16:9
Частота кадров : 25,000 кадров/сек
Цветовое пространство : YUV
Субдискретизация насыщенности : 4:2:0
Битовая глубина : 8 бит
Тип развёртки : Прогрессивная
Метод сжатия : С потерями
Бит/(Пиксели*Кадры) : 0.082
Размер потока : 1,38 Гбайт (85%)
Библиотека кодирования : XviD 64

Аудио
Идентификатор : 1
Формат : MPEG Audio
Версия формата : Version 1
Профиль формата : Layer 3
Режим : Joint stereo
Расширение режима : MS Stereo
Идентификатор кодека : 55
Идентификатор кодека/Подсказка : MP3
Вид битрейта : Постоянный
Битрейт : 320 Кбит/сек
Каналы : 2 канала
Частота : 44,1 КГц
Метод сжатия : С потерями
Задержка видео : 40 мс.
Размер потока : 238 Мбайт (14%)
Выравнивание : Соединение по промежуткам
Продолжительность промежутка : 26 мс. (0,65 видеокадр)
Время предзагрузки промежутка : 522 мс.
Библиотека кодирования : LAME3.99.5
Релиз от: Alicepsyx

Внимание! AdBlock блокирует показ скриншотов, все вопросы к разработчикам )))

Трекер:  [ 19-Янв-2017 19:00 ]

  

Скачать .torrent

Размер .torrent файла 16 KB


Размер: 1.62 GB
Хэш (hash) релиза: 3452ff5360f08e10b17235ecc8887be9aa38e564
Подписка на обновления:

Еще никто не оставлял запись к записи скачать торрент Кабадам Kabadam . Будь первым!

!Обратная связь