Скачать через торрент Убийство в Ханыльчже Haneuljae Salinsageon Фильм бесплатно в хорошем качестве torrent

Скачивайте на UnionPeer.org фильмы через торрент без регистрации. Новинки кино в хорошем качестве через торрент. На UnionPeer.org можно скачать через торрент фильмы 2014 и 2015 годов. Самые новые фильмы.

Скачать торрент Убийство в Ханыльчже Haneuljae Salinsageon бесплатно через .torrent фильм мультфильм сериал

Статистика раздачи
Размер:  1 GB   |    Зарегистрирован:  7 лет 2 месяца   |    .torrent скачан:  93 раза   |   
Раздают:  1  
 

Скачать Убийство в Ханыльчже / Haneuljae Salinsageon (Чхве Джун Пэ) [2013, Драма, исторический, трагедия, HDTVRip 720p] через torrent

 
 
Автор Сообщение

Galfimbul

avatar Galfimbul


Убийство в Ханыльчже /Haneuljae Salinsageon (Drama Festival 2013: Haneuljae's Murder)

Год выхода: 2013
Жанр: Драма, исторический, трагедия
Режиссер: Чхве Джун Пэ
В ролях: Мун Со Ри, Син Дон Ми, Ли Сэ Ён, Со Кан Джун

О фильме:
История отношений между молодым парнем и его тёщей с разницей в возрасте 20 лет.
Действие разворачивается во времена Корейской войны в 1950 гг. Молодой парень Юнха, будучи подростком без родителей и с младшей сестрой на руках, встречает ЧонБун, и его охватывают странные чувства. По стечению обстоятельств их связь внезапно теряется. Через несколько лет они неожиданно встречаются, когда одноклассница знакомит его со своей матерью. Он вспоминает о своих чувствах и, чтобы оставаться рядом с ЧонБун, женится на её дочери МиСу, хотя и не любит её...

Дополнительная информация: Фильм из цикла фестивальных минифильмов Drama Festival 2013

Страна: Южная Корея
Продолжительность: 01:07
Перевод: Любительский, двухголосый, закадровый (РГ "XDUB DORAMA", перевод на русский: IrinApril, закадровый текст читали: Shizu & vanchik92, тайминг и работа со звуком: Izanami)

Файл
Кодек: V_MPEG4/ISO/AVC
Качество: HDTVRip 720p
Видео: 1280x720 (16:9), 25.000 fps, 1800 Kbps
Звук: mp3, 48.0 KHz, 2ch, 320 Kbps
Субтитры: Нет
General
Unique ID : 228534203284909714824627762082605119698 (0xABEE1627A301C470B283239E424338D2)
Complete name : Haneuljae.Salinsageon.2013.L2.720p.HDTVRip.mkv
Format : Matroska
Format version : Version 2
File size : 1.00 GiB
Duration : 1h 7mn
Overall bit rate : 2 130 Kbps
Encoded date : UTC 2017-01-19 16:10:42
Writing application : mkvmerge v4.2.0 ('No Talking') сборка от Jul 28 2010 18:38:23
Writing library : libebml v1.0.0 + libmatroska v1.0.0

Video
ID : 1
Format : AVC
Format/Info : Advanced Video Codec
Format profile : [email protected]
Format settings, CABAC : Yes
Format settings, ReFrames : 4 frames
Muxing mode : Header stripping
Codec ID : V_MPEG4/ISO/AVC
Duration : 1h 7mn
Bit rate : 1 800 Kbps
Width : 1 280 pixels
Height : 720 pixels
Display aspect ratio : 16:9
Frame rate mode : Variable
Frame rate : 25.000 fps
Color space : YUV
Chroma subsampling : 4:2:0
Bit depth : 8 bits
Scan type : Progressive
Bits/(Pixel*Frame) : 0.078
Stream size : 850 MiB (83%)
Writing library : x264 core 129
Encoding settings : cabac=1 / ref=3 / deblock=1:0:0 / analyse=0x3:0x113 / me=hex / subme=7 / psy=1 / psy_rd=1.00:0.00 / mixed_ref=1 / me_range=16 / chroma_me=1 / trellis=1 / 8x8dct=1 / cqm=0 / deadzone=21,11 / fast_pskip=1 / chroma_qp_offset=-2 / threads=24 / lookahead_threads=4 / sliced_threads=0 / nr=0 / decimate=1 / interlaced=0 / bluray_compat=0 / constrained_intra=0 / bframes=3 / b_pyramid=2 / b_adapt=1 / b_bias=0 / direct=1 / weightb=1 / open_gop=0 / weightp=2 / keyint=250 / keyint_min=25 / scenecut=40 / intra_refresh=0 / rc_lookahead=40 / rc=abr / mbtree=1 / bitrate=1800 / ratetol=1.0 / qcomp=0.60 / qpmin=0 / qpmax=69 / qpstep=4 / ip_ratio=1.40 / aq=1:1.00
Default : Yes
Forced : No

Audio
ID : 2
Format : MPEG Audio
Format version : Version 1
Format profile : Layer 3
Mode : Joint stereo
Muxing mode : Header stripping
Codec ID : A_MPEG/L3
Codec ID/Hint : MP3
Duration : 1h 7mn
Bit rate mode : Constant
Bit rate : 320 Kbps
Channel(s) : 2 channels
Sampling rate : 48.0 KHz
Compression mode : Lossy
Stream size : 154 MiB (15%)
Default : Yes
Forced : No
Релиз от: XDUB DORAMA

Внимание! AdBlock блокирует показ скриншотов, все вопросы к разработчикам )))

Трекер:  [ 19-Янв-2017 23:00 ]

  

Скачать .torrent

Размер .torrent файла 20 KB


Размер: 1 GB
Хэш (hash) релиза: e0e39cea659b6970c0ddb4f7380b47f31fe7e21d
Подписка на обновления:

Еще никто не оставлял запись к записи скачать торрент Убийство в Ханыльчже Haneuljae Salinsageon . Будь первым!

!Обратная связь