Скачать через торрент Северные границы Northern Borders Фильм бесплатно в хорошем качестве torrent

Скачивайте на UnionPeer.org фильмы через торрент без регистрации. Новинки кино в хорошем качестве через торрент. На UnionPeer.org можно скачать через торрент фильмы 2014 и 2015 годов. Самые новые фильмы.

Скачать торрент Северные границы Northern Borders бесплатно через .torrent фильм мультфильм сериал

Статистика раздачи
Размер:  1.56 GB   |    Зарегистрирован:  7 лет 4 месяца   |    .torrent скачан:  34 раза   |   
Раздают:  1  
 

Скачать Северные границы / Northern Borders (Джей Крэвен) [2013, драма, WEB-DLRip] через torrent

 
 
Автор Сообщение

Galfimbul

avatar Galfimbul


Северные границы / Северные просторы /Northern Borders

Год выхода: 2013
Жанр: драма
Режиссер: Джей Крэвен
В ролях: Брюс Дерн, Женевьев Бюжо, Шеймас Дэви-Фицпатрик, Том Бодетт, Брент Кроуфорд, Расти Де Уиз, Джим Фицпатрик, Джон Грисмер, Джессика Хехт, Алисия Хант, Марк Маргулис, Тара О`Рейли, Кэйли Ронейн, Джон Ротман, Нетти Лэйн, Джей О. Сэндерс

О фильме:
Мужчина отправляет сына Остина на ферму в Вермонт к своим эксцентричным родителям. Здесь десятилетний мальчик испытает невероятные приключения и раскроет старую семейную тайну.

</a> </a>

Производство: США / Kingdom County Productions
Продолжительность: 01:48:47
Перевод: профессиональный (многоголосый закадровый) [официальный звук]

Файл
Качество: WEB-DLRip
Формат: AVI
Видео: XviD, 720x400 (16:9), 25.000 fps, 1650 kbps, 0.229 bit/pixel
Аудио #1: русский, AC3 2.0, 48 kHz, 192 kbps
Аудио #2: английский, AC3 2.0, 48 kHz, 192 kbps
Формат : AVI
Формат/Информация : Audio Video Interleave
Размер файла : 1,56 Гбайт
Продолжительность : 1 ч. 48 м.
Общий поток : 2048 Кбит/сек
Программа кодирования : VirtualDubModRus 1.5.10.2 (build 2542/release)
Библиотека кодирования : VirtualDubMod build 2542/release

Видео
Идентификатор : 0
Формат : MPEG-4 Visual
Профиль формата : Advanced Simple@L5
Параметр BVOP формата : 1
Параметр QPel формата : Да
Параметр GMC формата : Без точки перехода
Параметр матрицы формата : Default (MPEG)
Идентификатор кодека : XVID
Идентификатор кодека/Подсказка : XviD
Продолжительность : 1 ч. 48 м.
Битрейт : 1650 Кбит/сек
Ширина : 720 пикселей
Высота : 400 пикселей
Соотношение сторон : 16:9
Частота кадров : 25,000 кадров/сек
Цветовое пространство : YUV
Субдискретизация насыщенности : 4:2:0
Битовая глубина : 8 бит
Тип развёртки : Прогрессивная
Метод сжатия : С потерями
Бит/(Пиксели*Кадры) : 0.229
Размер потока : 1,25 Гбайт (81%)
Библиотека кодирования : XviD 1.2.1 (UTC 2008-12-04)

Аудио #1
Идентификатор : 1
Формат : AC-3
Формат/Информация : Audio Coding 3
Расширение режима : CM (complete main)
Параметр Endianness формата : Big
Идентификатор кодека : 2000
Продолжительность : 1 ч. 48 м.
Вид битрейта : Постоянный
Битрейт : 192 Кбит/сек
Каналы : 2 канала
Расположение каналов : Front: L R
Частота : 48,0 КГц
Метод сжатия : С потерями
Размер потока : 149 Мбайт (9%)
Выравнивание : Разделение по промежуткам
Продолжительность промежутка : 40 мс. (1,00 видеокадр)
Время предзагрузки промежутка : 500 мс.

Аудио #2
Идентификатор : 2
Формат : AC-3
Формат/Информация : Audio Coding 3
Расширение режима : CM (complete main)
Параметр Endianness формата : Big
Идентификатор кодека : 2000
Продолжительность : 1 ч. 48 м.
Вид битрейта : Постоянный
Битрейт : 192 Кбит/сек
Каналы : 2 канала
Расположение каналов : Front: L R
Частота : 48,0 КГц
Метод сжатия : С потерями
Размер потока : 149 Мбайт (9%)
Выравнивание : Разделение по промежуткам
Продолжительность промежутка : 40 мс. (1,00 видеокадр)
Время предзагрузки промежутка : 500 мс.


Внимание! AdBlock блокирует показ скриншотов, все вопросы к разработчикам )))

Трекер:  [ 23-Янв-2017 15:00 ]

  

Скачать .torrent

Размер .torrent файла 16 KB


Размер: 1.56 GB
Хэш (hash) релиза: 0a99c11ea97b01a5514edfe106dcea2b33ce0c9a
Подписка на обновления:

Торренты, похожие на Северные границы Northern Borders скачать торрент

Форум Название Автор Размер S L Добавлен
Зарубежные фильмы до 2016 ·· Северные границы / Северные просторы / Northern Borders (Джей Крэвен / Jay Craven) [2013, США, драма, HDTVRip] MVO Galfimbul 15720407041.46 GB 0 0 1517931006

18:30

6-Фев-18

Еще никто не оставлял запись к записи скачать торрент Северные границы Northern Borders . Будь первым!

!Обратная связь