Скачать через торрент Славные парни The Nice Guys Фильм бесплатно в хорошем качестве torrent

Скачивайте на UnionPeer.org фильмы через торрент без регистрации. Новинки кино в хорошем качестве через торрент. На UnionPeer.org можно скачать через торрент фильмы 2014 и 2015 годов. Самые новые фильмы.

Скачать торрент Славные парни The Nice Guys бесплатно через .torrent фильм мультфильм сериал

Статистика раздачи
Размер:  6.17 GB   |    Зарегистрирован:  7 лет 1 месяц   |    .torrent скачан:  105 раз   |   
Раздают:  1  
   
 
Автор Сообщение

Galfimbul

avatar Galfimbul


Славные парни / The Nice Guys

Страна: США, Великобритания
Студия: Bloom, Lip Sync Productions, Misty Mountains
Жанр: Криминал, комедия
Год выпуска: 2016
Продолжительность: 01:55:57

Перевод: Профессиональный (дублированный)
Перевод 2: Профессиональный (двухголосый закадровый) «Кубик в Кубе»
Перевод 3: Одноголосый закадровый М. Чадов по переводу Д. Пучкова
Cубтитры: Rus, Eng
Оригинальная аудиодорожка: английский

Режиссер: Шейн Блэк / Shane Black

В ролях: Райан Гослинг, Ким Бейсингер, Расселл Кроу, Энгаури Райс, Мэтт Бомер, Маргарет Куэлли, Йайа ДаКоста, Кит Дэвид, Бо Напп, Лоис Смит

Описание: Что может объединять два совершенно разных человека - частного сыщика Марчи Холланда, и наёмного вышибалу Хили Джексона? Лос-Анджелес 1970 год, два кажется несвязанных между собой дела, которые взялись расследовать эти два разных по профессиям человека, пропажа девушки, и смерть порнозвезды. В ходе расследования, нити этих дел приведут к шокирующему результату, о заговоре в высших эшелонов власти.



Тип релиза: BDRip 720p
Контейнер: MKV

Видео: MPEG-4 AVC, 4906 Кбит/с, 1280x534, 23,976 fps
Аудио: Rus, AC3, 640 kb/s (6 ch), 48 kHz
Аудио 2: Rus, AC3, 640 kb/s (6 ch), 48 kHz
Аудио 3: Rus, AC3, 640 kb/s (6 ch), 48 kHz
Аудио 4: Eng, AC3, 640 kb/s (6 ch), 48 kHz
Формат субтитров: softsub (SRT)
x264 [info]: frame I:1668 Avg QP:12.81 size:110395
x264 [info]: frame P:36300 Avg QP:14.49 size: 45381
x264 [info]: frame B:128837 Avg QP:15.86 size: 19903

Format : Matroska
Format version : Version 4 / Version 2
File size : 6.17 GiB
Duration : 1h 55mn
Overall bit rate : 7 618 Kbps
Movie name : Славные парни. (Tonik)
Encoded date : UTC 2017-01-15 16:46:32
Writing application : mkvmerge v7.1.0 ('Good Love') 64bit built on Jul 27 2014 13:06:55
Writing library : libebml v1.3.0 + libmatroska v1.4.1
_STATISTICS_WRITING_APP : mkvmerge v7.1.0 ('Good Love') 64bit built on Jul 27 2014 13:06:55
_STATISTICS_WRITING_DATE_UTC : 2017-01-15 16:46:32
_STATISTICS_TAGS : BPS DURATION NUMBER_OF_FRAMES NUMBER_OF_BYTES
DURATION : 01:55:57.120000000
NUMBER_OF_FRAMES : 217410
NUMBER_OF_BYTES : 556569600

Video
ID : 1
Format : AVC
Format/Info : Advanced Video Codec
Format profile : [email protected]
Format settings, CABAC : Yes
Format settings, ReFrames : 12 frames
Codec ID : V_MPEG4/ISO/AVC
Duration : 1h 55mn
Bit rate : 4 906 Kbps
Width : 1 280 pixels
Height : 534 pixels
Display aspect ratio : 2.40:1
Frame rate mode : Constant
Frame rate : 23.976 fps
Color space : YUV
Chroma subsampling : 4:2:0
Bit depth : 8 bits
Scan type : Progressive
Bits/(Pixel*Frame) : 0.299
Stream size : 3.97 GiB (64%)
Writing library : x264 core 148 r2638 7599210
Encoding settings : cabac=1 / ref=12 / deblock=1:-3:-3 / analyse=0x3:0x133 / me=tesa / subme=11 / psy=1 / psy_rd=1.00:0.00 / mixed_ref=1 / me_range=24 / chroma_me=1 / trellis=2 / 8x8dct=1 / cqm=0 / deadzone=21,11 / fast_pskip=0 / chroma_qp_offset=-2 / threads=12 / lookahead_threads=3 / sliced_threads=0 / nr=0 / decimate=1 / interlaced=0 / bluray_compat=0 / constrained_intra=0 / bframes=10 / b_pyramid=2 / b_adapt=2 / b_bias=0 / direct=3 / weightb=1 / open_gop=0 / weightp=2 / keyint=240 / keyint_min=23 / scenecut=40 / intra_refresh=0 / rc_lookahead=60 / rc=crf / mbtree=0 / crf=15.9 / qcomp=0.73 / qpmin=0 / qpmax=69 / qpstep=4 / vbv_maxrate=62500 / vbv_bufsize=78125 / crf_max=0.0 / nal_hrd=none / filler=0 / ip_ratio=1.32 / pb_ratio=1.18 / aq=1:0.80
Language : English
Default : Yes
Forced : No

Audio #1
ID : 2
Format : AC-3
Format/Info : Audio Coding 3
Mode extension : CM (complete main)
Format settings, Endianness : Big
Codec ID : A_AC3
Duration : 1h 55mn
Bit rate mode : Constant
Bit rate : 640 Kbps
Channel(s) : 6 channels
Channel positions : Front: L C R, Side: L R, LFE
Sampling rate : 48.0 KHz
Bit depth : 16 bits
Compression mode : Lossy
Stream size : 531 MiB (8%)
Language : Russian
Default : Yes
Forced : No

Audio #2
ID : 3
Format : AC-3
Format/Info : Audio Coding 3
Mode extension : CM (complete main)
Format settings, Endianness : Big
Codec ID : A_AC3
Duration : 1h 55mn
Bit rate mode : Constant
Bit rate : 640 Kbps
Channel(s) : 6 channels
Channel positions : Front: L C R, Side: L R, LFE
Sampling rate : 48.0 KHz
Bit depth : 16 bits
Compression mode : Lossy
Stream size : 531 MiB (8%)
Title : Кубик в Кубе
Language : Russian
Default : No
Forced : No

Audio #3
ID : 4
Format : AC-3
Format/Info : Audio Coding 3
Mode extension : CM (complete main)
Format settings, Endianness : Big
Codec ID : A_AC3
Duration : 1h 55mn
Bit rate mode : Constant
Bit rate : 640 Kbps
Channel(s) : 6 channels
Channel positions : Front: L C R, Side: L R, LFE
Sampling rate : 48.0 KHz
Bit depth : 16 bits
Compression mode : Lossy
Stream size : 531 MiB (8%)
Title : М. Чадов
Language : Russian
Default : No
Forced : No

Audio #4
ID : 5
Format : AC-3
Format/Info : Audio Coding 3
Mode extension : CM (complete main)
Format settings, Endianness : Big
Codec ID : A_AC3
Duration : 1h 55mn
Bit rate mode : Constant
Bit rate : 640 Kbps
Channel(s) : 6 channels
Channel positions : Front: L C R, Side: L R, LFE
Sampling rate : 48.0 KHz
Bit depth : 16 bits
Compression mode : Lossy
Stream size : 531 MiB (8%)
Language : English
Default : No
Forced : No

Text #1
ID : 6
Format : UTF-8
Codec ID : S_TEXT/UTF8
Codec ID/Info : UTF-8 Plain Text
Language : Russian
Default : No
Forced : No

Text #2
ID : 7
Format : UTF-8
Codec ID : S_TEXT/UTF8
Codec ID/Info : UTF-8 Plain Text
Language : English
Default : No
Forced : No

Text #3
ID : 8
Format : UTF-8
Codec ID : S_TEXT/UTF8
Codec ID/Info : UTF-8 Plain Text
Title : SDH
Language : English
Default : No
Forced : No

Menu
00:00:00.000 : en:00:00:00.000
00:10:41.683 : en:00:10:41.683
00:21:07.308 : en:00:21:07.308
00:29:12.876 : en:00:29:12.876
00:40:12.744 : en:00:40:12.744
00:50:50.464 : en:00:50:50.464
01:01:02.033 : en:01:01:02.033
01:10:15.420 : en:01:10:15.420
01:19:59.086 : en:01:19:59.086
01:29:40.709 : en:01:29:40.709
01:40:10.338 : en:01:40:10.338
01:48:35.801 : en:01:48:35.801
01:50:49.977 : en:01:50:49.977
Замена дорожки.

Внимание! AdBlock блокирует показ скриншотов, все вопросы к разработчикам )))
Трекер:  [ 23-Янв-2017 18:30 ]

  

Скачать .torrent

Размер .torrent файла 16 KB


Размер: 6.17 GB
Хэш (hash) релиза: 92517f4b5b77691fd553417e55a2fb30b9cae375
Подписка на обновления:

Торренты, похожие на Славные парни The Nice Guys скачать торрент

Форум Название Автор Размер S L Добавлен
Зарубежные фильмы 2016-2019 (Новинки зарубежного кино) ·%· Славные парни / The Nice Guys (2016) WEBRip 2160p от MediaClub | HDR | D, P2, A Galfimbul 2150668689620.03 GB 0 0 1532168410

13:20

21-Июл-18

Зарубежные фильмы до 2016 ·· Славные парни / The Nice Guys (Шейн Блэк / Shane Black) [2016, США, Великобритания, криминал, комедия, боевик, DVD9] Dub Galfimbul 70661263366.58 GB 0 0 1524499286

19:01

23-Апр-18

Зарубежные фильмы до 2016 ·· Славные парни / The Nice Guys (Шейн Блэк / Shane Black) [2016, США, Великобритания, криминал, комедия, Blu-ray disc 1080p] [RUS] Dub Galfimbul 2249557545420.95 GB 0 0 1476130306

23:11

10-Окт-16

Зарубежные фильмы до 2016 ·· Славные парни / The Nice Guys (Шейн Блэк / Shane Black) [2016, США, Великобритания, криминал, комедия, BDRip 1080p] Dub (BD RUS) + DVO (Кубик в Кубе) + VO (М.Чадов) + Sub Rus, Eng + Original Eng Galfimbul 1740487590916.21 GB 0 0 1475357680

00:34

2-Окт-16

Зарубежные фильмы до 2016 ·· Славные парни / The Nice Guys (Шейн Блэк / Shane Black) [2016, США, Великобритания, криминал, комедия, BDRip 1080p] Dub (iTunes) + DVO (Кубик в Кубе) + VO (М.Чадов) + Sub Rus, Eng + Original Eng Galfimbul 1642697994115.3 GB 0 0 1474712958

13:29

24-Сен-16

Зарубежные фильмы до 2016 ·· Славные парни / The Nice Guys (Шейн Блэк / Shane Black) [2016, США, Великобритания, криминал, комедия, BDRip 1080p] Dub (iTunes) + DVO (Кубик в Кубе) + Sub Rus, Eng + Original Eng Galfimbul 1511398724114.08 GB 0 0 1472153773

22:36

25-Авг-16

Зарубежные фильмы до 2016 ·· Славные парни / The Nice Guys (Шейн Блэк / Shane Black) [2016, США, Великобритания, криминал, комедия, BDRemux 1080p] Dub (iTunes) + DVO (Кубик в Кубе) + Sub Rus, Eng + Original Eng Galfimbul 3143667234829.28 GB 0 0 1471944825

12:33

23-Авг-16

Зарубежные фильмы до 2016 ·· Славные парни / The Nice Guys (Шейн Блэк / Shane Black) [2016, США, Великобритания, криминал, комедия, BDRemux 1080p] Dub (iTunes) + Sub Rus, Eng + Original Eng Galfimbul 2817217350726.24 GB 0 0 1471727934

00:18

21-Авг-16

Зарубежные фильмы до 2016 ·· Славные парни / The Nice Guys (Шейн Блэк / Shane Black) [2016, США, Великобритания, криминал, комедия, BDRip 720p] Dub (iTunes) + Sub Rus, Eng + Original Eng Galfimbul 60447033055.63 GB 0 0 1471727929

00:18

21-Авг-16

Зарубежные фильмы до 2016 ·· Славные парни / The Nice Guys (Шейн Блэк / Shane Black) [2016, США, Великобритания, криминал, комедия, BDRemux 1080p] Dub (iTunes) + Original (Eng) + Sub (Eng) Galfimbul 2761845585925.72 GB 0 0 1470990636

11:30

12-Авг-16

Зарубежные фильмы 2016-2019 (Новинки зарубежного кино) ·· Славные парни / The Nice Guys (Шейн Блэк / Shane Black) [2016, США, Криминал, комедия, BDRip-AVC] Dub + Original + Subs (rus, eng) Galfimbul 22071579852.06 GB 0 0 1470915390

14:36

11-Авг-16

Зарубежные фильмы 2016-2019 (Новинки зарубежного кино) ·· Славные парни / The Nice Guys (Шейн Блэк / Shane Black) [2016, США, Великобритания, криминал, комедия, BDRip 720p] iTunes Galfimbul 81654479327.6 GB 0 0 1470706835

04:40

9-Авг-16

Зарубежные фильмы 2016-2019 (Новинки зарубежного кино) ·· Славные парни / The Nice Guys (Шейн Блэк / Shane Black) [2016, США, Великобритания, криминал, комедия, HDRip] iTunes Galfimbul 14694338561.37 GB 0 0 1470546698

08:11

7-Авг-16

Зарубежные фильмы 2016-2019 (Новинки зарубежного кино) ·· Славные парни / The Nice Guys (Шейн Блэк / Shane Black) [2016, США, Великобритания, криминал, комедия, HDRip] iTunes Galfimbul 22112235522.06 GB 0 0 1470546692

08:11

7-Авг-16

Зарубежные фильмы 2016-2019 (Новинки зарубежного кино) ·· Славные парни / The Nice Guys (Шейн Блэк / Shane Black) [2016, США, Великобритания, криминал, комедия, BDRip 720p] iTunes Galfimbul 62015927505.78 GB 0 0 1470546686

08:11

7-Авг-16

Зарубежные фильмы 2016-2019 (Новинки зарубежного кино) ·· Славные парни / The Nice Guys (Шейн Блэк / Shane Black) [2016, США, Великобритания, криминал, комедия, BDRip 1080p] iTunes Galfimbul 97230309809.06 GB 0 0 1470546681

08:11

7-Авг-16

Зарубежные фильмы до 2016 ·· Славные парни / The Nice Guys (Шейн Блэк / Shane Black) [2016, США, Великобритания, криминал, комедия, WEB-DL 1080p] Dub (iTunes) Galfimbul 40013618063.73 GB 0 0 1469967887

15:24

31-Июл-16

Зарубежные фильмы 2016-2019 (Новинки зарубежного кино) ·· Славные парни / The Nice Guys (Шейн Блэк / Shane Black) [2016, США, Криминал, комедия, WEB-DLRip-AVC] Dub (iTunes) Galfimbul 15577883181.45 GB 0 0 1469745007

01:30

29-Июл-16

Зарубежные фильмы 2016-2019 (Новинки зарубежного кино) ·· Славные парни / The Nice Guys (Шейн Блэк / Shane Black) [2016, США, Великобритания, Криминал, комедия, WEB-DL 720] iTunes Galfimbul 36637083203.41 GB 0 0 1469701505

13:25

28-Июл-16

Еще никто не оставлял запись к записи скачать торрент Славные парни The Nice Guys . Будь первым!

!Обратная связь