Warcraft torrent

UnionPeer.org . . UnionPeer.org 2014 2015 . .

Warcraft .torrent

18.92 GB   |    :  7    |    .torrent :  99    |   
1  
   
 

Galfimbul

avatar Galfimbul


/ Warcraft

:
: , ,
: 2016
: 02:03:07

1: () -
2: ( ) - FocusStudio
3: - .
4: ( ) - .
5: - .
C: ( ), ( 4 ), (, SDH)
:
: / Duncan Jones
: (Anduin Lothar), (Garona), (Medivh), (Llane Wrynn), (Durotan / Antonidas), (Khadgar), (Orgrim), (Blackhand), (Gul'dan), (Lady Taria), (Draka), (Moroes).
: . , , . , . , .
:
: BDRip
: MKV

: 1920x792 (2.40:1) at 23.976, [email protected] ~ 13400 kbps avg, 0.366 bit/pixel
1: Russian / Dolby Digital Audio / 5.1 / 48 kHz / 640 kbps |
2: Russian 48 kHz/24-bit, DTS, 3/2 (L,C,R,l,r) + LFE ch, ~ 1509.00 kbps avg | FocusStudio
3: Russian 48 kHz/24-bit, DTS, 3/2 (L,C,R,l,r) + LFE ch, ~ 1509.00 kbps avg | .
4: Russian 48 kHz/24-bit, DTS, 3/2 (L,C,R,l,r) + LFE ch, ~ 1509.00 kbps avg | .
5: Russian 48 kHz/24-bit, DTS, 3/2 (L,C,R,l,r) + LFE ch, ~ 1509.00 kbps avg | .
6: English 48 kHz/24-bit, DTS, 3/2 (L,C,R,l,r) + LFE ch, ~ 1509.00 kbps avg

<div class="q-wrap">
<div class="q-head"><span><b>:</b></span></div>
<div class="q"> Blu-ray.</div>
</div>
Format : Matroska
Format version : Version 4 / Version 2
File size : 18.9 GiB
Duration : 2 h 3 min
Overall bit rate : 22.0 Mb/s
Movie name : / Warcraft (2016) Blu-ray 1080p
Encoded date : UTC 2017-01-25 14:13:35
Writing application : mkvmerge v7.4.0 ('Circles') 64bit built on Dec 12 2014 12:19:56
Writing library : libebml v1.3.0 + libmatroska v1.4.1
Cover : Yes
Attachments : Cover.png

Video
ID : 1
Format : AVC
Format/Info : Advanced Video Codec
Format profile : [email protected]
Format settings, CABAC : Yes
Format settings, ReFrames : 5 frames
Codec ID : V_MPEG4/ISO/AVC
Duration : 2 h 3 min
Bit rate : 13.8 Mb/s
Width : 1 920 pixels
Height : 792 pixels
Display aspect ratio : 2.40:1
Frame rate mode : Constant
Frame rate : 23.976 (24000/1001) FPS
Color space : YUV
Chroma subsampling : 4:2:0
Bit depth : 8 bits
Scan type : Progressive
Bits/(Pixel*Frame) : 0.379
Stream size : 11.9 GiB (63%)
Title : BLUEBIRD
Writing library : x264 core 148 r2705 3f5ed56
Encoding settings : cabac=1 / ref=5 / deblock=1:-3:-3 / analyse=0x3:0x113 / me=umh / subme=10 / psy=1 / psy_rd=1.03:0.00 / mixed_ref=1 / me_range=32 / chroma_me=1 / trellis=2 / 8x8dct=1 / cqm=1 / deadzone=21,11 / fast_pskip=0 / chroma_qp_offset=-1 / threads=12 / lookahead_threads=2 / sliced_threads=0 / nr=0 / decimate=1 / interlaced=0 / bluray_compat=0 / constrained_intra=0 / bframes=8 / b_pyramid=2 / b_adapt=2 / b_bias=0 / direct=3 / weightb=1 / open_gop=0 / weightp=2 / keyint=230 / keyint_min=23 / scenecut=40 / intra_refresh=0 / rc_lookahead=40 / rc=crf / mbtree=0 / crf=16.0 / qcomp=0.65 / qpmin=10 / qpmax=69 / qpstep=4 / vbv_maxrate=62500 / vbv_bufsize=78125 / crf_max=0.0 / nal_hrd=none / filler=0 / ip_ratio=1.30 / pb_ratio=1.20 / aq=1:0.76
Language : English
Default : Yes
Forced : No

Audio #1
ID : 2
Format : AC-3
Format/Info : Audio Coding 3
Mode extension : CM (complete main)
Format settings, Endianness : Big
Codec ID : A_AC3
Duration : 2 h 3 min
Bit rate mode : Constant
Bit rate : 640 kb/s
Channel(s) : 6 channels
Channel positions : Front: L C R, Side: L R, LFE
Sampling rate : 48.0 kHz
Frame rate : 31.250 FPS (1536 spf)
Bit depth : 16 bits
Compression mode : Lossy
Stream size : 564 MiB (3%)
Title : Dub
Language : Russian
Default : Yes
Forced : No

Audio #2
ID : 3
Format : DTS
Format/Info : Digital Theater Systems
Mode : 16
Format settings, Endianness : Big
Codec ID : A_DTS
Duration : 2 h 3 min
Bit rate mode : Constant
Bit rate : 1 509 kb/s
Channel(s) : 6 channels
Channel positions : Front: L C R, Side: L R, LFE
Sampling rate : 48.0 kHz
Frame rate : 93.750 FPS (512 spf)
Bit depth : 24 bits
Compression mode : Lossy
Stream size : 1.30 GiB (7%)
Title : MVO "FocusStudio"
Language : Russian
Default : No
Forced : No

Audio #3
ID : 4
Format : DTS
Format/Info : Digital Theater Systems
Mode : 16
Format settings, Endianness : Big
Codec ID : A_DTS
Duration : 2 h 3 min
Bit rate mode : Constant
Bit rate : 1 509 kb/s
Channel(s) : 6 channels
Channel positions : Front: L C R, Side: L R, LFE
Sampling rate : 48.0 kHz
Frame rate : 93.750 FPS (512 spf)
Bit depth : 24 bits
Compression mode : Lossy
Stream size : 1.30 GiB (7%)
Title : AVO "D. Esarev"
Language : Russian
Default : No
Forced : No

Audio #4
ID : 5
Format : DTS
Format/Info : Digital Theater Systems
Mode : 16
Format settings, Endianness : Big
Codec ID : A_DTS
Duration : 2 h 3 min
Bit rate mode : Constant
Bit rate : 1 509 kb/s
Channel(s) : 6 channels
Channel positions : Front: L C R, Side: L R, LFE
Sampling rate : 48.0 kHz
Frame rate : 93.750 FPS (512 spf)
Bit depth : 24 bits
Compression mode : Lossy
Stream size : 1.30 GiB (7%)
Title : AVO "Y. Jivov"
Language : Russian
Default : No
Forced : No

Audio #5
ID : 6
Format : DTS
Format/Info : Digital Theater Systems
Mode : 16
Format settings, Endianness : Big
Codec ID : A_DTS
Duration : 2 h 3 min
Bit rate mode : Constant
Bit rate : 1 509 kb/s
Channel(s) : 6 channels
Channel positions : Front: L C R, Side: L R, LFE
Sampling rate : 48.0 kHz
Frame rate : 93.750 FPS (512 spf)
Bit depth : 24 bits
Compression mode : Lossy
Stream size : 1.30 GiB (7%)
Title : AVO "E. Soloduhin"
Language : Russian
Default : No
Forced : No

Audio #6
ID : 7
Format : DTS
Format/Info : Digital Theater Systems
Mode : 16
Format settings, Endianness : Big
Codec ID : A_DTS
Duration : 2 h 3 min
Bit rate mode : Constant
Bit rate : 1 509 kb/s
Channel(s) : 6 channels
Channel positions : Front: L C R, Side: L R, LFE
Sampling rate : 48.0 kHz
Frame rate : 93.750 FPS (512 spf)
Bit depth : 24 bits
Compression mode : Lossy
Stream size : 1.30 GiB (7%)
Title : Original
Language : English
Default : No
Forced : No

Text #1
ID : 8
Format : UTF-8
Codec ID : S_TEXT/UTF8
Codec ID/Info : UTF-8 Plain Text
Duration : 1 h 48 min
Bit rate : 0 b/s
Count of elements : 16
Stream size : 535 Bytes (0%)
Title : Forced "MBB"
Language : Russian
Default : Yes
Forced : No

Text #2
ID : 9
Format : UTF-8
Codec ID : S_TEXT/UTF8
Codec ID/Info : UTF-8 Plain Text
Duration : 1 h 52 min
Bit rate : 60 b/s
Count of elements : 1216
Stream size : 49.7 KiB (0%)
Title : Full "BD"
Language : Russian
Default : No
Forced : No

Text #3
ID : 10
Format : UTF-8
Codec ID : S_TEXT/UTF8
Codec ID/Info : UTF-8 Plain Text
Duration : 1 h 52 min
Bit rate : 63 b/s
Count of elements : 1251
Stream size : 52.6 KiB (0%)
Title : Full "FocusStudio"
Language : Russian
Default : No
Forced : No

Text #4
ID : 11
Format : UTF-8
Codec ID : S_TEXT/UTF8
Codec ID/Info : UTF-8 Plain Text
Duration : 2 h 1 min
Bit rate : 56 b/s
Count of elements : 1378
Stream size : 50.3 KiB (0%)
Title : Full "MBB"
Language : Russian
Default : No
Forced : No

Text #5
ID : 12
Format : UTF-8
Codec ID : S_TEXT/UTF8
Codec ID/Info : UTF-8 Plain Text
Duration : 1 h 55 min
Bit rate : 57 b/s
Count of elements : 1054
Stream size : 48.4 KiB (0%)
Title : Full "Nunegsdli"
Language : Russian
Default : No
Forced : No

Text #6
ID : 13
Format : UTF-8
Codec ID : S_TEXT/UTF8
Codec ID/Info : UTF-8 Plain Text
Duration : 1 h 52 min
Bit rate : 35 b/s
Count of elements : 1074
Stream size : 29.4 KiB (0%)
Title : Full
Language : English
Default : No
Forced : No

Text #7
ID : 14
Format : UTF-8
Codec ID : S_TEXT/UTF8
Codec ID/Info : UTF-8 Plain Text
Duration : 1 h 53 min
Bit rate : 41 b/s
Count of elements : 1345
Stream size : 34.6 KiB (0%)
Title : SDH
Language : English
Default : No
Forced : No

Menu
00:00:00.000 : en:Chapter 01
00:09:26.482 : en:Chapter 02
00:15:49.406 : en:Chapter 03
00:22:36.146 : en:Chapter 04
00:29:16.171 : en:Chapter 05
00:38:43.321 : en:Chapter 06
00:46:44.092 : en:Chapter 07
00:53:02.679 : en:Chapter 08
00:56:17.332 : en:Chapter 09
01:02:43.926 : en:Chapter 10
01:07:48.314 : en:Chapter 11
01:12:24.548 : en:Chapter 12
01:17:13.045 : en:Chapter 13
01:22:45.669 : en:Chapter 14
01:26:32.145 : en:Chapter 15
01:32:29.669 : en:Chapter 16
01:40:25.102 : en:Chapter 17
01:47:38.118 : en:Chapter 18
01:51:12.832 : en:Chapter 19
01:53:58.832 : en:Chapter 20
02:03:07.129 : en:Chapter 21


! AdBlock , )))
 ·  , , FAQ-
:  [ 26--2017 21:00 ]

  

.torrent

.torrent 95 KB


: 18.92 GB
(hash) : 8b5241ea90025c1a4d2f46e65da6e7189e5587b5
:
··
...

, Warcraft

S L
2016-2019 ( ) ·%·  / Warcraft (2016) BDRip-HEVC 1080p M@kSIMus | Galfimbul 89632202738.35 GB 0 0 1551858659

10:50

6--19

2016-2019 ( ) ·%·  / Warcraft (2016) BDRip-HEVC 1080p | Galfimbul 84253388207.85 GB 0 0 1548264616

20:30

23--19

2016 ··  / Warcraft ( / Duncan Jones) [2016, , , BDRemux 1080p] Dub () + MVO (FocusStudio) + 3 VO (, , ) + 2x AVO ( & ) + Original Eng + Sub Rus, Eng Galfimbul 5382876508350.13 GB 0 0 1514574468

22:07

29--17

2016-2019 ( ) ··  / Warcraft ( / Duncan Jones) [2016, , , , , BDRemux 1080p] Galfimbul 4434863704441.3 GB 0 0 1510678225

19:50

14--17

2016-2019 ( ) ··  / Warcraft ( / Duncan Jones) [2016, , , , , BDRip-AVC] Dub + Sub Rus Galfimbul 782027987746 MB 0 0 1504116092

21:01

30--17

2016-2019 ( ) ··  / Warcraft ( / Duncan Jones) [2016, , , , , HDRip] Galfimbul 23528365542.19 GB 0 0 1498747822

17:50

29--17

2016-2019 ( ) ··  / Warcraft ( / Duncan Jones) [2016, , , , , , , , BDRip] MVO (FocusStudio) Galfimbul 23534100482.19 GB 0 0 1483442349

14:19

3--17

2016 ··  / Warcraft ( / Duncan Jones) [2016, , , BDRemux 1080p] Dub() + MVO(FocusStudio) + 2 VO( & ) + AVO() + Original Eng + Sub Rus, Eng Galfimbul 4434863704441.3 GB 0 0 1482524836

23:27

23--16

2016 ··  / Warcraft ( / Duncan Jones) [2016, , , , , , , , DVD5 ()] . R5, Dub + Sub Rus + Original Eng Galfimbul 46914805764.37 GB 0 0 1475644721

08:18

5--16

··  / Warcraft (Duncan Jones) [2016, | | , BDRip] Galfimbul 169340881161 MB 0 0 1475584694

15:38

4--16

··  / Warcraft (Duncan Jones) [2016, | | , BDRip] Galfimbul 6773839165 MB 0 0 1475446788

01:19

3--16

2016 ··  / Warcraft ( / Duncan Jones) [2016, , , , , , , , DVD9 + DVD5] R5 Dub + Sub Rus + Original Eng [2- ] Galfimbul 100306472969.34 GB 0 0 1475433234

21:33

2--16

2016 ··  / Warcraft ( / Duncan Jones) [2016, , , , , , , , Blu-ray disc 1080p] [CEE] Dub + Sub Rus, Eng + Original Eng Galfimbul 4870953132845.36 GB 1 1 1475269743

00:09

1--16

··  / Warcraft ( / Duncan Jones) [2016, | | , BDRip 1080p] Galfimbul 75963053957.07 GB 0 0 1474755866

01:24

25--16

··  / Warcraft ( / Duncan Jones) [2016, | | , BDRip 720p] Galfimbul 38762261023.61 GB 0 0 1474541864

13:57

22--16

2016-2019 ( ) ··  / Warcraft ( / Duncan Jones) [2016, , , , , BDRip-AVC] Dub + Original + Sub (rus, eng) Galfimbul 41103486433.83 GB 0 0 1474534768

11:59

22--16

2016-2019 ( ) ··  / Warcraft ( / Duncan Jones) [2016, , , , , Blu-Ray 1080p] Galfimbul 4870953132845.36 GB 0 0 1474503292

03:14

22--16

2016 ··  / Warcraft ( / Duncan Jones) [2016, , , , , , , , BDRip 1080p] Dub + Sub Rus, Eng + Original Eng Galfimbul 1300367841912.11 GB 0 0 1474489644

23:27

21--16

2016 ··  / Warcraft ( / Duncan Jones) [2016, , , , , , , , BDRip 720p] Dub + Sub Rus, Eng + Original Eng Galfimbul 68320870576.36 GB 0 0 1474487902

22:58

21--16

Warcraft . !

!