The Girl on the Train torrent

UnionPeer.org . . UnionPeer.org 2014 2015 . .

The Girl on the Train .torrent

16.7 GB   |    :  7    |    .torrent :  88    |   
1  
   
 

Galfimbul

avatar Galfimbul


/ The Girl on the Train

:
: , ,
: 2016
: 01:52:05

: ()
C: Russian (Forced, Blu-ray EUR), Russian (Blu-ray EUR), English, English (SDH), English (Commentary)
:
: / Tate Taylor
: , , , , , , , , ,
: , . . , , .
:

: BDRip | DON!
: MKV

: 1920x1038 (OAR) at 23.976 fps, [email protected], ~18.5 Mbps avg
1: Russian: 48 kHz, DTS, 3/2 (L,C,R,l,r) + LFE ch, ~768.00 kbps avg |, Blu-ray EUR|
2: English: 48 kHz, DTS, 3/2 (L,C,R,l,r) + LFE ch, ~1536.00 kbps avg
3: English: 48 kHz, AC3, 2/0 (L,R) ch, ~192.00 kbps avg |Feature Audio Commentary with Director Tate Taylor|

<div class="q-wrap">
<div class="q-head"><span><b>:</b></span></div>
<div class="q"> Blu-ray.
WEB-DL "".
Surprisingly good source, no banding, very little zones needed. Script is Here</div>
</div>
, - . .
, 19- .
, . .
.
, . .
. (2014), : (2015).
, . , , , .
(The Girl on the Train).
Format : Matroska
Format version : Version 2
File size : 16.7 GiB
Duration : 1 h 52 min
Overall bit rate : 21.3 Mb/s
Movie name : The Girl on the Train (2016) - Release for HDCLUB
Encoded date : UTC 2017-01-25 19:34:03
Writing application : mkvmerge v3.4.0 ('Rapunzel') built on May 15 2010 09:38:20
Writing library : libebml v0.8.0 + libmatroska v0.9.0
Cover : Yes
Attachments : Cover.jpg

Video
ID : 1
Format : AVC
Format/Info : Advanced Video Codec
Format profile : [email protected]
Format settings, CABAC : Yes
Format settings, ReFrames : 4 frames
Codec ID : V_MPEG4/ISO/AVC
Duration : 1 h 52 min
Bit rate : 18.4 Mb/s
Width : 1 920 pixels
Height : 1 038 pixels
Display aspect ratio : 1.85:1
Frame rate mode : Constant
Frame rate : 23.976 (24000/1001) FPS
Color space : YUV
Chroma subsampling : 4:2:0
Bit depth : 8 bits
Scan type : Progressive
Bits/(Pixel*Frame) : 0.386
Stream size : 14.4 GiB (86%)
Title : The Girl on the Train (2016) - Release for HDCLUB
Writing library : x264 core 148 r2705+54 9f484c1 t_mod_Custom [8-bit@all X86_64]
Encoding settings : cabac=1 / ref=4 / deblock=1:-3:-3 / analyse=0x3:0x133 / me=umh / subme=11 / psy=1 / fade_compensate=0.00 / psy_rd=1.05:0.00 / mixed_ref=1 / me_range=32 / chroma_me=1 / trellis=2 / 8x8dct=1 / cqm=0 / deadzone=21,11 / fast_pskip=0 / chroma_qp_offset=-2 / threads=12 / lookahead_threads=2 / sliced_threads=0 / nr=0 / decimate=0 / interlaced=0 / bluray_compat=0 / constrained_intra=0 / fgo=0 / bframes=9 / b_pyramid=2 / b_adapt=2 / b_bias=0 / direct=3 / weightb=1 / open_gop=0 / weightp=2 / keyint=250 / keyint_min=23 / scenecut=40 / intra_refresh=0 / rc_lookahead=60 / rc=crf / mbtree=0 / crf=17.7000 / qcomp=0.65 / qpmin=0:0:0 / qpmax=69:69:69 / qpstep=4 / vbv_maxrate=62500 / vbv_bufsize=78125 / crf_max=0.0 / nal_hrd=none / filler=0 / ip_ratio=1.30 / pb_ratio=1.20 / aq=3:0.75 / aq-sensitivity=10.00 / aq-factor=1.00:1.00:1.00 / aq2=0 / aq3=0 / zones=26,399,crf=14.7/411,1055,crf=14/9523,9720,crf=17/20572,20643,crf=17/21038,21280,crf=17/21518,21812,crf=17/45990,46141,crf=17/79399,79514,crf=14/82952,83126,crf=14.7/85826,86116,crf=14/86117,86407,crf=17/89642,89925,crf=16/93652,93834,crf=16/95324,95647,crf=17/96037,96149,crf=14/117843,117925,crf=16/118062,118206,crf=14/121279,121659,crf=14/121751,122355,crf=14.7/123544,124426,crf=16.5/142397,142429,crf=14.7/142531,142568,crf=14.7/150016,150024,crf=14/153085,153093,crf=14/153100,161238,crf=22
Language : English
Default : Yes
Forced : No
Color range : Limited
Matrix coefficients : BT.709

Audio #1
ID : 2
Format : DTS
Format/Info : Digital Theater Systems
Mode : 16
Format settings, Endianness : Big
Codec ID : A_DTS
Duration : 1 h 52 min
Bit rate mode : Constant
Bit rate : 768 kb/s
Channel(s) : 6 channels
Channel positions : Front: L C R, Side: L R, LFE
Sampling rate : 48.0 kHz
Frame rate : 93.750 FPS (512 spf)
Bit depth : 24 bits
Compression mode : Lossy
Stream size : 616 MiB (4%)
Title : DTS 5.1 @ 768 kbps - DUB, Blu-ray EUR
Language : Russian
Default : Yes
Forced : No

Audio #2
ID : 3
Format : DTS
Format/Info : Digital Theater Systems
Mode : 16
Format settings, Endianness : Big
Codec ID : A_DTS
Duration : 1 h 52 min
Bit rate mode : Constant
Bit rate : 1 509 kb/s
Channel(s) : 6 channels
Channel positions : Front: L C R, Side: L R, LFE
Sampling rate : 48.0 kHz
Frame rate : 93.750 FPS (512 spf)
Bit depth : 24 bits
Compression mode : Lossy
Delay relative to video : 11 ms
Stream size : 1.18 GiB (7%)
Title : DTS 5.1 @ 1536 kbps
Language : English
Default : No
Forced : No

Audio #3
ID : 4
Format : AC-3
Format/Info : Audio Coding 3
Format profile : Dolby Digital
Mode extension : CM (complete main)
Format settings, Endianness : Big
Codec ID : A_AC3
Duration : 1 h 52 min
Bit rate mode : Constant
Bit rate : 192 kb/s
Channel(s) : 2 channels
Channel positions : Front: L R
Sampling rate : 48.0 kHz
Frame rate : 31.250 FPS (1536 spf)
Bit depth : 16 bits
Compression mode : Lossy
Stream size : 154 MiB (1%)
Title : AC3 2.0 @ 192 kbps - Commentary with director Tate Taylor
Language : English
Default : No
Forced : No

Text #1
ID : 5
Format : UTF-8
Codec ID : S_TEXT/UTF8
Codec ID/Info : UTF-8 Plain Text
Title : Forced, Blu-ray EUR
Language : Russian
Default : Yes
Forced : No

Text #2
ID : 6
Format : UTF-8
Codec ID : S_TEXT/UTF8
Codec ID/Info : UTF-8 Plain Text
Title : Blu-ray EUR
Language : Russian
Default : No
Forced : No

Text #3
ID : 7
Format : UTF-8
Codec ID : S_TEXT/UTF8
Codec ID/Info : UTF-8 Plain Text
Language : English
Default : No
Forced : No

Text #4
ID : 8
Format : UTF-8
Codec ID : S_TEXT/UTF8
Codec ID/Info : UTF-8 Plain Text
Title : SDH
Language : English
Default : No
Forced : No

Text #5
ID : 9
Format : UTF-8
Codec ID : S_TEXT/UTF8
Codec ID/Info : UTF-8 Plain Text
Title : Commentary
Language : English
Default : No
Forced : No

Menu
00:00:00.000 : en:00:00:00.000
00:06:01.778 : en:00:06:01.778
00:09:29.903 : en:00:09:29.903
00:18:15.970 : en:00:18:15.970
00:25:26.150 : en:00:25:26.150
00:32:04.506 : en:00:32:04.506
00:37:04.973 : en:00:37:04.973
00:44:52.315 : en:00:44:52.315
00:49:22.459 : en:00:49:22.459
00:55:07.012 : en:00:55:07.012
00:59:36.031 : en:00:59:36.031
01:03:34.811 : en:01:03:34.811
01:09:25.787 : en:01:09:25.787
01:14:36.430 : en:01:14:36.430
01:19:08.702 : en:01:19:08.702
01:23:44.728 : en:01:23:44.728
01:28:07.491 : en:01:28:07.491
01:33:49.457 : en:01:33:49.457
01:38:54.554 : en:01:38:54.554
01:45:55.182 : en:01:45:55.182


! AdBlock , )))
 ·  , , FAQ-
:  [ 27--2017 11:30 ]

  

.torrent

.torrent 42 KB


: 16.7 GB
(hash) : 92e9a46620a148516bd74e11cdb06e56a8498ab3
:
··
...

, The Girl on the Train

S L
2016-2019 ( ) ··  / The Girl on the Train (2016) BDRip 1080p KORSAR | D, A Galfimbul 1230887222911.46 GB 0 0 1580874620

06:50

5--20

2016 ··  / The Girl on the Train ( / Tate Taylor) [2016, , , , , , DVD5 ()] . R5, Dub + Sub Rus + Original Eng Galfimbul 46975283204.37 GB 0 0 1527580890

11:01

29--18

2016 ··  / The Girl on the Train ( / Tate Taylor) [2016, , , , , , DVD9] R5 Dub + Sub Rus + Original Eng Galfimbul 83412930567.77 GB 0 0 1524751352

17:02

26--18

2016-2019 ( ) ··  / The Girl on the Train ( / Tate Taylor) [2016, , , , , HDRip] AVO () Galfimbul 15686164481.46 GB 0 0 1508868090

21:01

24--17

2016-2019 ( ) ··  / The Girl on the Train ( / Tate Taylor) [2016, , , , , BDRip] AVO () Galfimbul 15660032001.46 GB 0 0 1505196083

09:01

12--17

2016 ··  / The Girl on the Train ( / Tate Taylor) [2016, , , , , BDRemux 1080p] Dub + Original (Eng) + Sub (Rus, Eng) Galfimbul 3190923155629.72 GB 0 0 1491238519

19:55

3--17

··  / The Girl on the Train ( / Tate Taylor) [2016, | , BDRip 720p] Galfimbul 1044547460996 MB 0 0 1486313483

19:51

5--17

2016-2019 ( ) ··  / The Girl on the Train ( / Tate Taylor) [2016, , , , , DVD9] Custom Galfimbul 76789043207.15 GB 0 0 1486289702

13:15

5--17

2016 ··  / The Girl on the Train ( / Tate Taylor) [2016, , , , , BDRip 720p] Dub + Sub Rus, Eng + Original Eng Galfimbul 100875943309.39 GB 0 0 1486053504

19:38

2--17

2016 ··  / The Girl on the Train ( / Tate Taylor) [2016, , , , , Blu-ray disc 1080p] [EUR] Dub + Sub Rus, Eng + Original Eng Galfimbul 4548905229042.36 GB 1 1 1485708924

19:55

29--17

2016-2019 ( ) ··  / The Girl on the Train ( / Tate Taylor) [2016, , , , , Blu-Ray EUR] Galfimbul 4548905229042.36 GB 0 0 1485493827

08:10

27--17

2016-2019 ( ) ··  / The Girl on the Train ( / Tate Taylor) [2016, , , , , HDRip] Dub + Original + Subs (rus,eng) Galfimbul 23534679352.19 GB 0 0 1485431589

14:53

26--17

2016-2019 ( ) ··  / The Girl on the Train ( / Tate Taylor) [2016, , , , , BDRip-AVC] Dub + Original + Sub (rus, eng) Galfimbul 23150032232.16 GB 0 0 1485421034

11:57

26--17

2016-2019 ( ) ··  / The Girl on the Train ( / Tate Taylor) [2016, , , , , HDRip-AVC] Dub + Original + Sub (eng) Galfimbul 23503351312.19 GB 0 0 1484234816

18:26

12--17

2016-2019 ( ) ··  / The Girl on the Train ( / Tate Taylor) [2016, , , , , HDRip] Dub + Original Galfimbul 22994247682.14 GB 0 0 1484234803

18:26

12--17

2016 ··  / The Girl on the Train ( / Tate Taylor) [2016, , , , , BDRip 1080p] Dub (iTunes) + Sub Eng + Original Eng Galfimbul 1251896873011.66 GB 0 0 1483642240

21:50

5--17

2016 ··  / The Girl on the Train ( / Tate Taylor) [2016, , , , , BDRip 720p] Dub (iTunes) + Sub Eng + Original Eng Galfimbul 52699917294.91 GB 0 0 1483636809

20:20

5--17

2016-2019 ( ) ··  / The Girl on the Train ( / Tate Taylor) [2016, , , , , WEB-DLRip] Dub (iTunes) Galfimbul 15659622401.46 GB 0 0 1483442270

14:17

3--17

2016-2019 ( ) ··  / The Girl on the Train ( / Tate Taylor) [2016, , , , , WEB-DLRip] Dub (iTunes) Galfimbul 783528464747 MB 0 0 1483442264

14:17

3--17

The Girl on the Train . !

!