Скачать через торрент Подводная братва Shark Tale Фильм бесплатно в хорошем качестве torrent

Скачивайте на UnionPeer.org фильмы через торрент без регистрации. Новинки кино в хорошем качестве через торрент. На UnionPeer.org можно скачать через торрент фильмы 2014 и 2015 годов. Самые новые фильмы.

Скачать торрент Подводная братва Shark Tale бесплатно через .torrent фильм мультфильм сериал

Статистика раздачи
Размер:  7.05 GB   |    Зарегистрирован:  7 лет   |    .torrent скачан:  53 раза   |   
Раздают:  1  
   
 
Автор Сообщение

Galfimbul

avatar Galfimbul


Подводная братва / Shark Tale

Страна: США
Жанр: комедия, приключения
Продолжительность: 01:29:51
Год выпуска: 2004
Перевод 1: Профессиональный (Дублированный) Невафильм
Перевод 2: Профессиональный (Многоголосый закадровый) Superbit (С.Р.И.)
Перевод 3: Профессиональный (Многоголосый закадровый)
Перевод 4: Профессиональный (Двухголосый закадровый) Tycoon
Перевод 5: Авторский (Одноголосый закадровый) Сергей Визгунов
Перевод 6: Авторский (Одноголосый закадровый) Владимир Королёв
Русские субтитры: есть

Режиссёр: Бибо Бержерон / Bibo Bergeron, Вики Дженсон / Vicky Jenson, Роб Леттерман / Rob Letterman
Описание: Весь подводный мир встревожен убийством сына главы главной преступной группировки акул и, надо же, на месте преступления находят ничего не подозревающего малька Оскара! Всю жизнь Оскар мечтал быть сильным и знаменитым, и вот ему представился прекрасный случай воспользоваться чужой славой. Но очень скоро Оскар понимает, что он натворил, взяв титул «Гроза Акул»…

Семпл: http://sendfile.su/1304184

Качество: WEB-DL 1080p
Формат: MKV
Видео: 1920x1080 (16:9), 23.976 fps, AVC, ~8005 Kbps, 0.161 bits/pixel
Аудио 1: Russian, 48.0 KHz, AC3, 6 ch, 384 Kbps - Невафильм
Аудио 2: Russian, 48.0 KHz, AC3, 6 ch, 448 Kbps - Superbit (С.Р.И.)
Аудио 3: Russian, 48.0 KHz, AC3, 2 ch, 192 Kbps - MVO
Аудио 4: Russian, 48.0 KHz, AC3, 6 ch, 448 Kbps - Tycoon
Аудио 5: Russian, 48.0 KHz, AC3, 6 ch, 448 Kbps - Сергей Визгунов
Аудио 6: Russian, 48.0 KHz, AC3, 6 ch, 448 Kbps - Владимир Королёв
Аудио 7: English, 48.0 KHz, AC3+, 6 ch, 640 Kbps
Субтитры: русские, английские

Переводы и субтитры с раздачи <a href="viewtopic.php?t=4801751" class="postLink">-Azureus-</a>, добавлены без пересинхронизации.
<div class="q-wrap">
<div class="q-head"><span><b>-Azureus-</b> писал(а):</span></div>
<div class="q">- За предоставление голоса Королёва и Визгунова, спасибо GVR232
- Работа с субтитрами yv_apple
- Работа со звуком xfiles
</div>
</div>
<a href="viewtopic.php?t=1577016" class="postLink">...1577016</a>
HDTVRip | WEB-DL




<a href="viewtopic.php?t=886300" class="postLink">...886300</a>
HDTVRip | WEB-DL




GeneralUnique ID : 240682914551705567388663456692575457108 (0xB511D7DD8307D459993B4F5EC5C0CF54)Complete name : C:\Shark Tale. WEB-DL 1080p.mkvFormat : MatroskaFormat version : Version 4 / Version 2File size : 7.05 GiBDuration : 1h 29mnOverall bit rate mode : VariableOverall bit rate : 11.2 MbpsMovie name :Encoded date : UTC 2017-01-31 10:22:56Writing application : mkvmerge v9.7.1 ('Pandemonium') 64bitWriting library : libebml v1.3.4 + libmatroska v1.4.5

VideoID : 1Format : AVCFormat/Info : Advanced Video CodecFormat profile : High@L4Format settings, CABAC : YesFormat settings, ReFrames : 4 framesCodec ID : V_MPEG4/ISO/AVCDuration : 1h 29mnBit rate mode : VariableBit rate : 8 239 KbpsMaximum bit rate : 15.0 MbpsWidth : 1 920 pixelsHeight : 1 080 pixelsDisplay aspect ratio : 16:9Frame rate mode : ConstantFrame rate : 23.976 (24000/1001) fpsColor space : YUVChroma subsampling : 4:2:0Bit depth : 8 bitsScan type : ProgressiveBits/(Pixel*Frame) : 0.166Stream size : 5.16 GiB (73%)Writing library : x264 core 148 r2623 d5b2374Encoding settings : cabac=1 / ref=4 / deblock=1:-1:-1 / analyse=0x3:0x133 / me=umh / subme=9 / psy=1 / psy_rd=1.00:0.15 / mixed_ref=1 / me_range=24 / chroma_me=1 / trellis=2 / 8x8dct=1 / cqm=0 / deadzone=21,11 / fast_pskip=1 / chroma_qp_offset=-3 / threads=34 / lookahead_threads=5 / sliced_threads=0 / nr=150 / decimate=1 / interlaced=0 / bluray_compat=0 / constrained_intra=0 / bframes=8 / b_pyramid=2 / b_adapt=2 / b_bias=0 / direct=3 / weightb=1 / open_gop=0 / weightp=2 / keyint=120 / keyint_min=61 / scenecut=0 / intra_refresh=0 / rc_lookahead=120 / rc=crf / mbtree=1 / crf=18.0 / qcomp=0.60 / qpmin=0 / qpmax=69 / qpstep=4 / vbv_maxrate=15000 / vbv_bufsize=31250 / crf_max=0.0 / nal_hrd=vbr / filler=0 / ip_ratio=1.40 / aq=3:1.00Language : EnglishDefault : YesForced : NoColor range : LimitedColor primaries : BT.709Transfer characteristics : BT.709Matrix coefficients : BT.709

Audio #1ID : 2Format : AC-3Format/Info : Audio Coding 3Mode extension : CM (complete main)Format settings, Endianness : BigCodec ID : A_AC3Duration : 1h 29mnBit rate mode : ConstantBit rate : 384 KbpsChannel(s) : 6 channelsChannel positions : Front: L C R, Side: L R, LFESampling rate : 48.0 KHzFrame rate : 31.250 fps (1536 spf)Compression mode : LossyStream size : 246 MiB (3%)Title : НевафильмLanguage : RussianDefault : YesForced : No

Audio #2ID : 3Format : AC-3Format/Info : Audio Coding 3Mode extension : CM (complete main)Format settings, Endianness : BigCodec ID : A_AC3Duration : 1h 29mnBit rate mode : ConstantBit rate : 448 KbpsChannel(s) : 6 channelsChannel positions : Front: L C R, Side: L R, LFESampling rate : 48.0 KHzFrame rate : 31.250 fps (1536 spf)Compression mode : LossyStream size : 288 MiB (4%)Title : Superbit (С.Р.И.)Language : RussianDefault : NoForced : No

Audio #3ID : 4Format : AC-3Format/Info : Audio Coding 3Mode extension : CM (complete main)Format settings, Endianness : BigCodec ID : A_AC3Duration : 1h 29mnBit rate mode : ConstantBit rate : 192 KbpsChannel(s) : 2 channelsChannel positions : Front: L RSampling rate : 48.0 KHzFrame rate : 31.250 fps (1536 spf)Compression mode : LossyStream size : 123 MiB (2%)Title : MVOLanguage : RussianDefault : NoForced : No

Audio #4ID : 5Format : AC-3Format/Info : Audio Coding 3Mode extension : CM (complete main)Format settings, Endianness : BigCodec ID : A_AC3Duration : 1h 29mnBit rate mode : ConstantBit rate : 448 KbpsChannel(s) : 6 channelsChannel positions : Front: L C R, Side: L R, LFESampling rate : 48.0 KHzFrame rate : 31.250 fps (1536 spf)Compression mode : LossyStream size : 288 MiB (4%)Title : TycoonLanguage : RussianDefault : NoForced : No

Audio #5ID : 6Format : AC-3Format/Info : Audio Coding 3Mode extension : CM (complete main)Format settings, Endianness : BigCodec ID : A_AC3Duration : 1h 29mnBit rate mode : ConstantBit rate : 448 KbpsChannel(s) : 6 channelsChannel positions : Front: L C R, Side: L R, LFESampling rate : 48.0 KHzFrame rate : 31.250 fps (1536 spf)Compression mode : LossyStream size : 288 MiB (4%)Title : Сергей ВизгуновLanguage : RussianDefault : NoForced : No

Audio #6ID : 7Format : AC-3Format/Info : Audio Coding 3Mode extension : CM (complete main)Format settings, Endianness : BigCodec ID : A_AC3Duration : 1h 29mnBit rate mode : ConstantBit rate : 448 KbpsChannel(s) : 6 channelsChannel positions : Front: L C R, Side: L R, LFESampling rate : 48.0 KHzFrame rate : 31.250 fps (1536 spf)Compression mode : LossyStream size : 288 MiB (4%)Title : Владимир КоролёвLanguage : RussianDefault : NoForced : No

Audio #7ID : 8Format : E-AC-3Format/Info : Audio Coding 3Format settings, Endianness : BigCodec ID : A_EAC3Duration : 1h 29mnBit rate mode : ConstantBit rate : 640 KbpsChannel(s) : 6 channelsChannel positions : Front: L C R, Side: L R, LFESampling rate : 48.0 KHzFrame rate : 187.500 fps (256 spf)Compression mode : LossyStream size : 411 MiB (6%)Language : EnglishDefault : NoForced : No

Text #1ID : 9Format : UTF-8Codec ID : S_TEXT/UTF8Codec ID/Info : UTF-8 Plain TextDuration : 1h 28mnBit rate : 115 bpsCount of elements : 1243Stream size : 74.9 KiB (0%)Language : RussianDefault : NoForced : No

Text #2ID : 10Format : UTF-8Codec ID : S_TEXT/UTF8Codec ID/Info : UTF-8 Plain TextDuration : 1h 29mnBit rate : 82 bpsCount of elements : 1720Stream size : 54.1 KiB (0%)Language : EnglishDefault : NoForced : No

Text #3ID : 11Format : UTF-8Codec ID : S_TEXT/UTF8Codec ID/Info : UTF-8 Plain TextDuration : 1h 29mnBit rate : 81 bpsCount of elements : 1473Stream size : 53.3 KiB (0%)Title : SDHLanguage : EnglishDefault : NoForced : No

Menu00:00:00.000 : en:Chapter 100:04:12.000 : en:Chapter 200:05:40.000 : en:Chapter 300:08:35.000 : en:Chapter 400:11:08.000 : en:Chapter 500:14:54.000 : en:Chapter 600:17:43.000 : en:Chapter 700:20:27.000 : en:Chapter 800:26:05.000 : en:Chapter 900:31:13.000 : en:Chapter 1000:36:03.000 : en:Chapter 1100:40:38.000 : en:Chapter 1200:48:20.000 : en:Chapter 1300:53:40.000 : en:Chapter 1400:58:28.000 : en:Chapter 1501:04:19.000 : en:Chapter 1601:06:48.000 : en:Chapter 1701:16:37.000 : en:Chapter 1801:18:16.000 : en:Chapter 1901:21:32.000 : en:Chapter 20
<div class="clear" style="height: 8px;"></div>

Внимание! AdBlock блокирует показ скриншотов, все вопросы к разработчикам )))
Трекер:  [ 31-Янв-2017 15:30 ]

  

Скачать .torrent

Размер .torrent файла 18 KB


Размер: 7.05 GB
Хэш (hash) релиза: 1b8b460809ada27705be43180203cd165cb36069
Подписка на обновления:

Торренты, похожие на Подводная братва Shark Tale скачать торрент

Форум Название Автор Размер S L Добавлен
Мультфильмы до 2016 ·· Подводная братва / Shark Tale (Бибо Бержерон / Bibo Bergeron, Вики Дженсон / Vicky Jenson, Роб Леттерман / Rob Letterman) [2004, США, комедия, приключения, семейный, WEB-DLRip-AVC] Dub + Original Eng + Sub Rus, Eng Galfimbul 784799070748 MB 0 0 1467327091

01:51

1-Июл-16

Мультфильмы до 2016 ·· Подводная братва / Shark Tale (Бибо Бержерон / Bibo Bergeron, Вики Дженсон / Vicky Jenson, Роб Леттерман / Rob Letterman) [2004, мультфильм, комедия, приключения, семейный, WEB-DL 720p] DUB + 2xMVO + DVO + 2xAVO + ENG + SUB (rus, eng) Galfimbul 47388385734.41 GB 0 0 1413209312

17:08

13-Окт-14

Мультфильмы до 2016 ·· Подводная братва / Shark Tale (Бибо Бержерон, Вики Дженсон, Роб Леттерман / Bibo Bergeron, Vicky Jenson, Rob Letterman) [2004, мультфильм, комедия, семейный, DVD5] DVO(Tycoon) + rus sub L 38644019203.6 GB 0 0 1323978811

22:53

15-Дек-11

Мультфильмы до 2016 ·· Подводная братва / Shark Tale (Бибо Бержерон, Вики Дженсон, Роб Леттерман) [2004 г., Мультфильм, комедия, семейный, DVD9] Лицензия R5 Captain Claw 75479121927.03 GB 0 0 1293315696

01:21

26-Дек-10

Мультфильмы до 2016 ·· Подводная братва / Shark Tale (Бибо Бержерон / Bibo Bergeron, Вики Дженсон / Vicky Jenson, Роб Леттерман / Rob Letterman) [2004 г., Мультфильм, DVD9] (Киномания) FRANKS 71181926406.63 GB 0 0 1293315674

01:21

26-Дек-10

Еще никто не оставлял запись к записи скачать торрент Подводная братва Shark Tale . Будь первым!

!Обратная связь