Скачать через торрент Прибытие Arrival Фильм бесплатно в хорошем качестве torrent

Скачивайте на UnionPeer.org фильмы через торрент без регистрации. Новинки кино в хорошем качестве через торрент. На UnionPeer.org можно скачать через торрент фильмы 2014 и 2015 годов. Самые новые фильмы.

Скачать торрент Прибытие Arrival бесплатно через .torrent фильм мультфильм сериал

Статистика раздачи
Размер:  4.77 GB   |    Зарегистрирован:  7 лет   |    .torrent скачан:  207 раз   |   
Раздают:  1  
 

Скачать Прибытие / Arrival (Дени Вильнёв / Denis Villeneuve) [2016, США, фантастика, триллер, драма, детектив, экранизация, BDRip 720p] MVO + Sub Rus, Eng + Original Eng через torrent

 
 
Автор Сообщение

Galfimbul

avatar Galfimbul


Прибытие / Arrival

Страна: США
Студия: 21 Laps Entertainment, FilmNation Entertainment, Lava Bear Films
Жанр: Фантастика, триллер, драма, детектив, экранизация
Год выпуска: 2016
Продолжительность: 01:56:23

Перевод: Любительский (многоголосый закадровый) Paradox & OMSKBIRD
Cубтитры: Русские, Английские
Оригинальная аудиодорожка: английский

Режиссер: Дени Вильнёв / Denis Villeneuve

В ролях: Эми Адамс, Джереми Реннер, Майкл Стулбарг, Форест Уитакер, Сангита Патель, Марк О’Брайэн, Эбигейл Пнёвски, Ци Ма, Натали Тибо, Рут Чианг, Анана Ридвальд, Расселл Юэнь, Фрэнк Фиола, Ларри Дэй, Пэт Кили, Джо Кобден, Джулиан Кэйси, Эндрю Шэйвер, Макс Уолкер, Кристиан Джада, Женевьева Сироис, Мустафа Хайдари, Кэтлин Ставерт, Шон Кэмпбелл

Описание: Неожиданное появление неопознанных летающих объектов в разных точках планеты повергает мир в трепет. Намерения пришельцев не ясны — вооруженные силы всего мира приведены в полную боевую готовность, а лучшие умы человечества пытаются понять, как разговаривать с непрошенными гостями. Правительство обращается за помощью к лингвисту Луизе Бэнкс и физику Яну Доннели, чтобы предотвратить глобальную катастрофу и найти общий язык с пришельцами. Отныне судьба человечества находится в их руках.



<div class="post-box">Скачать сэмпл</div>

Тип релиза: BDRip 720p
Контейнер: MKV

Видео: MPEG-4 AVC, 6560 Кбит/с, 1280x536, 23,976 fps
Аудио: Rus, AC3, 384 kb/s (6 ch), 48 kHz
Аудио 2: Eng, DTS, 1509 kb/s (6 ch), 48 kHz
Формат субтитров: softsub (SRT)
Общее
Уникальный идентификатор : 217712829430630869981353146660425909745 (0xA3C9F73B3EFA130DA546CF2A8DA145F1)
Полное имя : Arrival.2016.BDRip.720p.mkv
Формат : Matroska
Версия формата : Version 4 / Version 2
Размер файла : 6,87 Гбайт
Продолжительность : 1 ч. 56 м.
Общий поток : 8456 Кбит/сек
Дата кодирования : UTC 2017-02-02 18:01:54
Программа кодирования : mkvmerge v9.8.0 ('Kuglblids') 64bit
Библиотека кодирования : libebml v1.3.4 + libmatroska v1.4.5

Видео
Идентификатор : 1
Формат : AVC
Формат/Информация : Advanced Video Codec
Профиль формата : [email protected]
Параметр CABAC формата : Да
Параметр ReFrames формата : 12 кадров
Идентификатор кодека : V_MPEG4/ISO/AVC
Продолжительность : 1 ч. 56 м.
Битрейт : 6560 Кбит/сек
Ширина : 1280 пикселей
Высота : 536 пикселей
Соотношение сторон : 2,40:1
Режим частоты кадров : Постоянный
Частота кадров : 23,976 (24000/1001) кадра/сек
Цветовое пространство : YUV
Субдискретизация насыщенности : 4:2:0
Битовая глубина : 8 бит
Тип развёртки : Прогрессивная
Бит/(Пиксели*Кадры) : 0.399
Размер потока : 5,33 Гбайт (78%)
Библиотека кодирования : x264 core 148 r2597 e86f3a1
Настройки программы : cabac=1 / ref=12 / deblock=1:0:0 / analyse=0x3:0x113 / me=umh / subme=10 / psy=1 / psy_rd=1.05:0.10 / mixed_ref=1 / me_range=32 / chroma_me=1 / trellis=2 / 8x8dct=1 / cqm=0 / deadzone=21,11 / fast_pskip=0 / chroma_qp_offset=-2 / threads=12 / lookahead_threads=1 / sliced_threads=0 / nr=0 / decimate=1 / interlaced=0 / bluray_compat=0 / constrained_intra=0 / bframes=6 / b_pyramid=2 / b_adapt=2 / b_bias=0 / direct=3 / weightb=1 / open_gop=0 / weightp=2 / keyint=250 / keyint_min=23 / scenecut=40 / intra_refresh=0 / rc=2pass / mbtree=0 / bitrate=6560 / ratetol=1.0 / qcomp=0.70 / qpmin=0 / qpmax=69 / qpstep=4 / cplxblur=20.0 / qblur=0.5 / ip_ratio=1.40 / pb_ratio=1.30 / aq=2:1.00
Язык : English
Default : Да
Forced : Нет

Аудио #1
Идентификатор : 2
Формат : AC-3
Формат/Информация : Audio Coding 3
Расширение режима : CM (complete main)
Параметр Endianness формата : Big
Идентификатор кодека : A_AC3
Продолжительность : 1 ч. 56 м.
Вид битрейта : Постоянный
Битрейт : 384 Кбит/сек
Каналы : 6 каналов
Расположение каналов : Front: L C R, Side: L R, LFE
Частота : 48,0 КГц
Частота кадров : 31,250 кадров/сек (1536 spf)
Метод сжатия : С потерями
Размер потока : 320 Мбайт (5%)
Заголовок : Paradox & OMSKBIRD
Язык : Russian
Default : Да
Forced : Нет

Аудио #2
Идентификатор : 3
Формат : DTS
Формат/Информация : Digital Theater Systems
Режим : 16
Параметр Endianness формата : Big
Идентификатор кодека : A_DTS
Продолжительность : 1 ч. 56 м.
Вид битрейта : Постоянный
Битрейт : 1509 Кбит/сек
Каналы : 6 каналов
Расположение каналов : Front: L C R, Side: L R, LFE
Частота : 48,0 КГц
Частота кадров : 93,750 кадра/сек (512 spf)
Битовая глубина : 24 бит
Метод сжатия : С потерями
Размер потока : 1,23 Гбайт (18%)
Язык : English
Default : Нет
Forced : Нет

Текст #1
Идентификатор : 4
Формат : UTF-8
Идентификатор кодека : S_TEXT/UTF8
Идентификатор кодека/Информация : UTF-8 Plain Text
Продолжительность : 1 ч. 49 м.
Битрейт : 72 бит/сек
Count of elements : 759
Размер потока : 57,7 Кбайт (0%)
Язык : Russian
Default : Нет
Forced : Нет

Текст #2
Идентификатор : 5
Формат : UTF-8
Идентификатор кодека : S_TEXT/UTF8
Идентификатор кодека/Информация : UTF-8 Plain Text
Продолжительность : 1 ч. 48 м.
Битрейт : 53 бит/сек
Count of elements : 1219
Размер потока : 42,8 Кбайт (0%)
Язык : English
Default : Нет
Forced : Нет

Меню
00:00:00.000 : en:00:00:00.000
00:09:49.923 : en:00:09:49.923
00:17:33.552 : en:00:17:33.552
00:23:28.282 : en:00:23:28.282
00:33:54.157 : en:00:33:54.157
00:41:01.709 : en:00:41:01.709
00:52:26.101 : en:00:52:26.101
00:57:34.576 : en:00:57:34.576
01:03:06.449 : en:01:03:06.449
01:09:29.207 : en:01:09:29.207
01:16:09.398 : en:01:16:09.398
01:25:21.825 : en:01:25:21.825
01:35:37.065 : en:01:35:37.065
01:45:26.695 : en:01:45:26.695
<div class="clear" style="height: 8px;"></div>

Внимание! AdBlock блокирует показ скриншотов, все вопросы к разработчикам )))
Трекер:  [ 02-Фев-2017 16:30 ]

  

Скачать .torrent

Размер .torrent файла 12 KB


Размер: 4.77 GB
Хэш (hash) релиза: e21642c27c890b928c7bd638b78aba2f45188152
Подписка на обновления:

Торренты, похожие на Прибытие Arrival скачать торрент

Форум Название Автор Размер S L Добавлен
Зарубежные фильмы 2016-2019 (Новинки зарубежного кино) ·%· Прибытие / Arrival (2016) BDRip-HEVC 1080p от HEVC-CLUB | Лицензия Galfimbul 44920518624.18 GB 0 0 1579243206

09:40

17-Янв-20

Зарубежные фильмы до 2016 ·· Прибытие / Arrival (Дени Вильнёв / Denis Villeneuve) [2016, США, Фантастика, триллер, драма, детектив, DVD5 (сжатый)] исх. R2, Dub + Sub Rus + Original Eng Galfimbul 46800465924.36 GB 0 0 1511798770

19:06

27-Ноя-17

Зарубежные фильмы 2016-2019 (Новинки зарубежного кино) ·· Прибытие / Arrival (Дени Вильнёв / Denis Villeneuve) [2016, США, фантастика, триллер, драма, детектив, HDRip-AVC] 3xAVO (Визгунов, Гаврилов, Сербин) + Subs (Rus, Ukr, Eng) Galfimbul 31243726732.91 GB 0 0 1509552076

19:01

1-Ноя-17

Зарубежные фильмы 2016-2019 (Новинки зарубежного кино) ·· Прибытие / Arrival (Дени Вильнёв / Denis Villeneuve) [2016, США, фантастика, триллер, драма, детектив, BDRip] AVO (Гаврилов) + Sub Rus (forced) Galfimbul 15643439311.46 GB 0 0 1499688100

15:01

10-Июл-17

Зарубежные фильмы до 2016 ·· Прибытие / Arrival (Дени Вильнёв / Denis Villeneuve) [2016, США, фантастика, триллер, драма, детектив, BD> DVD9 (Custom)] DUB + AVO + Sub Rus / Eng + Original Eng Galfimbul 83741962247.8 GB 0 0 1489645086

09:18

16-Мар-17

Зарубежные фильмы до 2016 ·· Прибытие / Arrival (Дени Вильнёв / Denis Villeneuve) [2016, США, фантастика, триллер, драма, BDRip 1080p] Dub + 2x VO (Матвеев, Есарев) + Original (Eng) + Sub (Rus, Eng) Galfimbul 105920249639.86 GB 0 0 1489245835

18:23

11-Мар-17

Зарубежные фильмы до 2016 ·· Прибытие / Arrival (Дени Вильнёв / Denis Villeneuve) [2016, США, Фантастика, триллер, драма, детектив, экранизация, Blu-ray disc 1080p] Dub (CEE) + Sub Rus, Eng + Original Eng Galfimbul 4322344287640.25 GB 0 0 1489100086

01:54

10-Мар-17

Зарубежные фильмы 2016-2019 (Новинки зарубежного кино) ·· Прибытие / Arrival (Дени Вильнёв / Denis Villeneuve) [2016, США, фантастика, триллер, драма, Blu-Ray EUR 1080p] Лицензия Galfimbul 4322344287640.25 GB 0 0 1488586300

03:11

4-Мар-17

Зарубежные фильмы 2016-2019 (Новинки зарубежного кино) ·· Прибытие / Arrival (Дени Вильнёв / Denis Villeneuve) [2016, США, фантастика, триллер, драма, BDRip-AVC] Dub (iTunes) + Original + Sub (rus, eng) Galfimbul 28647269242.67 GB 0 0 1486328511

00:01

6-Фев-17

Зарубежные фильмы 2016-2019 (Новинки зарубежного кино) ·· Прибытие / Arrival (Дени Вильнёв / Denis Villeneuve) [2016, США, фантастика, триллер, драма, HDRip-AVC] Dub (iTunes) + Original + Sub (rus, eng) Galfimbul 17351142751.62 GB 0 0 1486123213

15:00

3-Фев-17

Зарубежные фильмы 2016-2019 (Новинки зарубежного кино) ·· Прибытие / Arrival (Дени Вильнёв) [2016, фантастика, триллер, драма, детектив, HDRip] iTunes Galfimbul 781791034746 MB 0 0 1486073472

01:11

3-Фев-17

Зарубежные фильмы 2016-2019 (Новинки зарубежного кино) ·· Прибытие / Arrival (Дени Вильнёв) [2016, фантастика, триллер, драма, детектив, BDRip 1080p] iTunes Galfimbul 1081659114010.07 GB 0 0 1486071750

00:42

3-Фев-17

Зарубежные фильмы 2016-2019 (Новинки зарубежного кино) ·· Прибытие / Arrival (Дени Вильнёв) [2016, фантастика, триллер, драма, детектив, HDRip] iTunes Galfimbul 15715389441.46 GB 0 0 1486066403

23:13

2-Фев-17

Зарубежные фильмы до 2016 ·· Прибытие / Arrival (Дени Вильнёв / Denis Villeneuve) [2016, США, Фантастика, триллер, драма, детектив, экранизация, BDRip 1080p] MVO + Sub Rus, Eng + Original Eng Galfimbul 1082018967310.08 GB 0 0 1486041945

16:25

2-Фев-17

Зарубежные фильмы 2016-2019 (Новинки зарубежного кино) ·· Прибытие / Arrival (Дени Вильнёв / Denis Villeneuve) [2016, США, фантастика, триллер, драма, WEB-DLRip-AVC] MVO + Original + Sub (rus, eng) Galfimbul 15756514321.47 GB 0 0 1485948886

14:34

1-Фев-17

Зарубежные фильмы 2016-2019 (Новинки зарубежного кино) ·· Прибытие / Arrival (Дени Вильнёв) [2016, фантастика, триллер, драма, детектив, BDRip 720p] Galfimbul 62042261635.78 GB 0 0 1485927779

08:42

1-Фев-17

Зарубежные фильмы 2016-2019 (Новинки зарубежного кино) ·· Прибытие / Arrival (Дени Вильнёв) [2016, фантастика, триллер, драма, детектив, BDRip 1080p] Galfimbul 101185316109.42 GB 0 0 1485925860

08:11

1-Фев-17

Зарубежные фильмы 2016-2019 (Новинки зарубежного кино) ·· Прибытие / Arrival (Дени Вильнёв) [2016, фантастика, триллер, драма, детектив, WEB-DLRip] Paradox&OMSKBIRD Galfimbul 15516835841.45 GB 0 0 1485899181

00:46

1-Фев-17

Зарубежные фильмы 2016-2019 (Новинки зарубежного кино) ·· Прибытие / Arrival (Дени Вильнёв) [2016, фантастика, триллер, драма, детектив, WEB-DL 1080p] Paradox&OMSKBIRD Galfimbul 46470120674.33 GB 0 0 1485893625

23:13

31-Янв-17

Еще никто не оставлял запись к записи скачать торрент Прибытие Arrival . Будь первым!

!Обратная связь