Скачать через торрент Пассажиры Passengers Фильм бесплатно в хорошем качестве torrent

Скачивайте на UnionPeer.org фильмы через торрент без регистрации. Новинки кино в хорошем качестве через торрент. На UnionPeer.org можно скачать через торрент фильмы 2014 и 2015 годов. Самые новые фильмы.

Скачать торрент Пассажиры Passengers бесплатно через .torrent фильм мультфильм сериал

Статистика раздачи
Размер:  2.82 GB   |    Зарегистрирован:  7 лет   |    .torrent скачан:  298 раз   |   
Раздают:  1  
 

Скачать Пассажиры / Passengers (Мортен Тильдум / Morten Tyldum) [2016, США, фантастика, драма, мелодрама, приключения, HDTVRip 720p] Звук с CAMRip через torrent

 
 
Автор Сообщение

Galfimbul

avatar Galfimbul


Пассажиры /Passengers

Год выхода: 2016
Жанр: фантастика, драма, мелодрама, приключения
Режиссер: Мортен Тильдум
В ролях: Дженнифер Лоуренс, Крис Пратт, Майкл Шин, Лоренс Фишбёрн, Энди Гарсиа, Винс Фостер, Кара Мишель Уайлдер, Конор Брофи, Джули Серда, Аврора Перрино

О фильме:
Космический корабль с 5,000 пассажиров на борту, погруженных на время полета в искусственный сон, держит курс на планету, которая станет для них новым домом. Всё идет по плану, но из-за сбоя системы двое пассажиров неожиданно просыпаются и понимают, что до конечного пункта путешествия — 90 лет пути, и им суждено остаток жизни провести вдвоем в роскошных интерьерах корабля, оснащенного по последнему слову техники. Постепенно Джима и Аврору начинает непреодолимо тянуть друг к другу, но корабль попадает в беду, и теперь в их руках — жизнь и судьба всех обитателей корабля.



Страна: США
Продолжительность: 01:56:09
Перевод: Профессиональный (полное дублирование)

Файл
Кодек: x.264
Качество: HDTVRip 720p
Видео: AVC, 1280x720 (16:9), 29.762 fps, 3 000 Kbps (0.109 bit/pixel)
Звук:
#1: AC-3, 48.0 KHz, 2 ch, 256 Kbps, CBR (Russian)
#2: AAC LC, 44.1 KHz, 2 ch , 224 Kbps(English)
Субтитры: Корейские (хардсаб)
Общее
Уникальный идентификатор : 208507630221286270099405307803234159550 (0x9CDD1BDEBFE7C3239E658DCCE2E34BBE)
Полное имя : Passengers.2016.720p.HTDV.mkv
Формат : Matroska
Версия формата : Version 4 / Version 2
Размер файла : 2,82 Гбайт
Продолжительность : 1 ч. 56 м.
Общий поток : 3475 Кбит/сек
Дата кодирования : UTC 2017-02-04 20:55:06
Программа кодирования : mkvmerge v8.3.0 ('Over the Horizon') 64bit
Библиотека кодирования : libebml v1.3.1 + libmatroska v1.4.2

Видео
Идентификатор : 1
Формат : AVC
Формат/Информация : Advanced Video Codec
Профиль формата : [email protected]
Параметр CABAC формата : Да
Параметр ReFrames формата : 4 кадра
Идентификатор кодека : V_MPEG4/ISO/AVC
Продолжительность : 1 ч. 56 м.
Битрейт : 3000 Кбит/сек
Ширина : 1280 пикселей
Высота : 720 пикселей
Соотношение сторон : 16:9
Режим частоты кадров : Постоянный
Частота кадров : 29,750 кадров/сек
Цветовое пространство : YUV
Субдискретизация насыщенности : 4:2:0
Битовая глубина : 8 бит
Тип развёртки : Прогрессивная
Бит/(Пиксели*Кадры) : 0.109
Размер потока : 2,43 Гбайт (86%)
Библиотека кодирования : x264 core 148 r2597M e86f3a1
Настройки программы : cabac=1 / ref=4 / deblock=1:0:0 / analyse=0x3:0x113 / me=umh / subme=8 / psy=1 / psy_rd=1.00:0.00 / mixed_ref=1 / me_range=16 / chroma_me=1 / trellis=1 / 8x8dct=1 / cqm=0 / deadzone=21,11 / fast_pskip=1 / chroma_qp_offset=-2 / threads=40 / lookahead_threads=5 / sliced_threads=0 / nr=0 / decimate=1 / interlaced=0 / bluray_compat=0 / constrained_intra=0 / bframes=3 / b_pyramid=2 / b_adapt=2 / b_bias=0 / direct=3 / weightb=1 / open_gop=0 / weightp=2 / keyint=250 / keyint_min=25 / scenecut=40 / intra_refresh=0 / rc_lookahead=50 / rc=abr / mbtree=1 / bitrate=3000 / ratetol=1.0 / qcomp=0.60 / qpmin=0 / qpmax=69 / qpstep=4 / ip_ratio=1.40 / aq=1:1.00
Default : Да
Forced : Нет

Аудио #1
Идентификатор : 2
Формат : AC-3
Формат/Информация : Audio Coding 3
Расширение режима : CM (complete main)
Параметр Endianness формата : Big
Идентификатор кодека : A_AC3
Продолжительность : 1 ч. 56 м.
Вид битрейта : Постоянный
Битрейт : 256 Кбит/сек
Каналы : 2 канала
Расположение каналов : Front: L R
Частота : 48,0 КГц
Частота кадров : 31,250 кадров/сек (1536 spf)
Битовая глубина : 16 бит
Метод сжатия : С потерями
Задержка видео : -46 мс.
Размер потока : 212 Мбайт (7%)
Заголовок : Дубляж
Язык : Russian
Default : Да
Forced : Нет

Аудио #2
Идентификатор : 3
Формат : AAC
Формат/Информация : Advanced Audio Codec
Профиль формата : LC
Идентификатор кодека : A_AAC
Продолжительность : 1 ч. 56 м.
Битрейт : 224 Кбит/сек
Каналы : 2 канала
Расположение каналов : Front: L R
Частота : 44,1 КГц
Частота кадров : 43,066 кадра/сек (1024 spf)
Метод сжатия : С потерями
Задержка видео : -46 мс.
Размер потока : 186 Мбайт (6%)
Язык : English
Default : Нет
Forced : Нет


Внимание! AdBlock блокирует показ скриншотов, все вопросы к разработчикам )))
Трекер:  [ 05-Фев-2017 12:30 ]

  

Скачать .torrent

Размер .torrent файла 14 KB


Размер: 2.82 GB
Хэш (hash) релиза: efbc6007bd7515f7a13d54f1ef792ea4c7130f73
Подписка на обновления:

Торренты, похожие на Пассажиры Passengers скачать торрент

Форум Название Автор Размер S L Добавлен
Зарубежные фильмы 2016-2019 (Новинки зарубежного кино) ·%· Пассажиры / Passengers (2016) BDRip-HEVC 1080p от HEVC-CLUB | D Galfimbul 52769281524.91 GB 0 0 1573408232

20:50

10-Ноя-19

Зарубежные фильмы 2016-2019 (Новинки зарубежного кино) ·%· Пассажиры / Passengers (2016) BDRip 1080p от New-Team & qqss44 | Лицензия Galfimbul 74589145966.95 GB 0 0 1571422820

21:20

18-Окт-19

Зарубежные фильмы 2016-2019 (Новинки зарубежного кино) ·%· Пассажиры / Passengers (2016) BDRip-HEVC 1080p от HEVC-CLUB | Лицензия Galfimbul 50118940364.67 GB 0 0 1571418034

20:00

18-Окт-19

Зарубежные фильмы 2016-2019 (Новинки зарубежного кино) ·%· Пассажиры / Passengers (2016) BDRip 720p от MediaClub | D, A Galfimbul 63990868495.96 GB 0 0 1555594812

16:40

18-Апр-19

Зарубежные фильмы 2016-2019 (Новинки зарубежного кино) ·%· Пассажиры / Passengers (2016) BDRip-AVC | D | Локализованная версия | Лицензия Galfimbul 22133809162.06 GB 0 0 1541404211

10:50

5-Ноя-18

Зарубежные фильмы 2016-2019 (Новинки зарубежного кино) ·%· Пассажиры / Passengers (2016) BDRip от ExKinoRay | Локализованная версия | Лицензия Galfimbul 15678171661.46 GB 0 0 1538777460

01:11

6-Окт-18

Зарубежные фильмы 2016-2019 (Новинки зарубежного кино) ·%· Пассажиры / Passengers (2016) BDRip от ExKinoRay | Локализованная версия | Лицензия Galfimbul 23427807222.18 GB 0 0 1538777412

01:10

6-Окт-18

Зарубежные фильмы 2016-2019 (Новинки зарубежного кино) ·· Пассажиры / Passengers (Мортен Тильдум / Morten Tyldum) [2016, США, фантастика, триллер, драма, HDRip] AVO (Смирнов) Galfimbul 15676149761.46 GB 0 0 1523732468

22:01

14-Апр-18

Зарубежные фильмы 2016-2019 (Новинки зарубежного кино) ·· Пассажиры / Passengers (Morten Tyldum Мортен Тильдум) [2016, фантастика, драма, мелодрама, BDRip 1080p] D, A | Лицензия Galfimbul 1893756038117.64 GB 0 0 1518356482

16:41

11-Фев-18

Зарубежные фильмы 2016-2019 (Новинки зарубежного кино) ·· Пассажиры / Passengers (Morten Tyldum Мортен Тильдум) [2016, фантастика, драма, мелодрама, DVD9] Лицензия Galfimbul 77627207687.23 GB 0 0 1518294032

23:20

10-Фев-18

Зарубежные фильмы 2016-2019 (Новинки зарубежного кино) ·· Пассажиры / Passengers (Morten Tyldum Мортен Тильдум) [2016, фантастика, драма, мелодрама, BDRip 2160p] Galfimbul 3783620020235.24 GB 0 0 1505195426

08:50

12-Сен-17

Зарубежные фильмы 2016-2019 (Новинки зарубежного кино) ·· Пассажиры / Passengers (Мортен Тильдум / Morten Tyldum) [2016, США, фантастика, драма, мелодрама, приключения, BDRip] AVO (Юрий Сербин) Galfimbul 15562301441.45 GB 0 0 1501295419

05:30

29-Июл-17

Зарубежные фильмы до 2016 ·· Пассажиры / Passengers (Мортен Тильдум / Morten Tyldum) [2016, США, Фантастика, драма, мелодрама, приключения, DVD5 (сжатый)] исх. R2, Dub + Sub Rus + Original Eng Galfimbul 46975754244.37 GB 0 0 1500575771

21:36

20-Июл-17

Трейлеры и дополнительные материалы ·· Пассажиры / Passengers (Morten Tyldum Мортен Тильдум) [2016, фантастика, драма, мелодрама, BDRip] дополнительные материалы Galfimbul 59030092995.5 GB 0 0 1497989366

23:09

20-Июн-17

Трейлеры и дополнительные материалы ·· Пассажиры / Passengers (Мортен Тильдум) [2016, фантастика, драма, мелодрама, BluRay] удаленные сцены Galfimbul 13049096871.22 GB 0 0 1494656164

09:16

13-Май-17

Зарубежные фильмы до 2016 ·· Пассажиры / Passengers (Мортен Тильдум / Morten Tyldum) [2016, США, фантастика, драма, мелодрама, приключения, BD> DVD9 (Custom)] DUB + AVO + Sub Rus / Eng + Original Eng Galfimbul 83417047047.77 GB 0 0 1491411248

19:54

5-Апр-17

Зарубежные фильмы до 2016 ·· Пассажиры / Passengers (Мортен Тильдум / Morten Tyldum) [2016, США, фантастика, драма, мелодрама, Blu-ray disc 1080p] [EUR] Dub + Sub Rus, Eng + Original Eng Galfimbul 4172635861038.86 GB 0 0 1490201929

19:58

22-Мар-17

Зарубежные фильмы до 2016 ·· Пассажиры / Passengers (Мортен Тильдум / Morten Tyldum) [2016, США, фантастика, драма, мелодрама, приключения, BDRip 1080p] Dub (iTunes) + Sub Rus, Ukr, Eng + Original Eng Galfimbul 1417498295113.2 GB 0 0 1489100065

01:54

10-Мар-17

Зарубежные фильмы до 2016 ·· Пассажиры / Passengers (Мортен Тильдум / Morten Tyldum) [2016, США, фантастика, драма, мелодрама, приключения, BDRip 720p] Dub (iTunes) + Sub Rus, Ukr, Eng + Original Eng Galfimbul 57552608405.36 GB 0 0 1489100039

01:53

10-Мар-17

Зарубежные фильмы 2016-2019 (Новинки зарубежного кино) ·· Пассажиры / Passengers (Мортен Тильдум / Morten Tyldum) [2016, США, фантастика, драма, мелодрама, приключения, BDRip-AVC] Dub Rus, Ukr (iTunes) + Sub Rus, Ukr, Eng + Original Eng Galfimbul 31982282512.98 GB 0 0 1488637058

17:17

4-Мар-17

Еще никто не оставлял запись к записи скачать торрент Пассажиры Passengers . Будь первым!

!Обратная связь