Скачать через торрент Уиджи. Проклятие доски дьявола Ouija: Origin of Evil Фильм бесплатно в хорошем качестве torrent

Скачивайте на UnionPeer.org фильмы через торрент без регистрации. Новинки кино в хорошем качестве через торрент. На UnionPeer.org можно скачать через торрент фильмы 2014 и 2015 годов. Самые новые фильмы.

Скачать торрент Уиджи. Проклятие доски дьявола Ouija: Origin of Evil бесплатно через .torrent фильм мультфильм сериал

Статистика раздачи
Размер:  6.32 GB   |    Зарегистрирован:  7 лет   |    .torrent скачан:  37 раз   |   
Раздают:  1  
 

Скачать Уиджи. Проклятие доски дьявола / Ouija: Origin of Evil (Майк Флэнеган / Mike Flanagan) [2016, США, ужасы, триллер, BDRip 720p] Dub (BD CEE) + Sub Rus, Eng + Original Eng через torrent

 
 
Автор Сообщение

Galfimbul

avatar Galfimbul


Уиджи. Проклятие доски дьявола / Ouija: Origin of Evil

Страна: США
Студия: Allspark Pictures, Blumhouse Productions, Hasbro Inc.
Жанр: ужасы, триллер
Год выпуска: 2016
Продолжительность: 01:38:54

Перевод: Профессиональный (дублированный) BD CEE
Cубтитры: Русские, Английские
Оригинальная аудиодорожка: английский

Режиссер: Майк Флэнеган / Mike Flanagan

В ролях: Анналиса Бассо, Элизабет Ризер, Лулу Уилсон, Генри Томас, Паркер Мак, Холли Чарлтон, Алексис Дж. Залл, Даг Джонс, Кейт Сигел, Сэм Андерсон

Описание: Спиритическая доска Уиджи никогда не была просто игрой. Она служила порталом в мир мертвых. Столетиями она служила вратами между миром живых и царством мертвых. Но однажды духи выйдут из-под контроля, и первородное зло овладеет душой ребенка…

<div class="post-box">Скачать сэмпл</div>

Тип релиза: BDRip 720p
Контейнер: MKV

Доп. Информация:
Рип от DON.

Видео: MPEG-4 AVC, 6864 Кбит/с, 1280x692, 23,976 fps
Аудио 1: Rus, DTS, 768 kb/s (6 ch), 48 kHz
Аудио 2: Eng, DTS, 1509 kb/s (6 ch), 48 kHz
Формат субтитров: softsub (SRT)
x264 [info]: frame I:1162 Avg QP:14.04 size:141448
x264 [info]: frame P:25956 Avg QP:15.46 size: 61137
x264 [info]: frame B:115174 Avg QP:16.89 size: 29004
x264 [info]: consecutive B-frames: 1.3% 0.7% 2.7% 8.4% 9.7% 65.3% 8.0% 1.9% 2.0%
Общее
Уникальный идентификатор : 234604469299217902201449458584992181340 (0xB07F2D60530D0A258AA2116029F96C5C)
Полное имя : Ouija.Origin.of.Evil.2016.BDRip.720p.mkv
Формат : Matroska
Версия формата : Version 4 / Version 2
Размер файла : 6,32 Гбайт
Продолжительность : 1 ч. 38 м.
Общий поток : 9144 Кбит/сек
Дата кодирования : UTC 2017-02-10 17:39:34
Программа кодирования : mkvmerge v9.8.0 ('Kuglblids') 64bit
Библиотека кодирования : libebml v1.3.4 + libmatroska v1.4.5

Видео
Идентификатор : 1
Формат : AVC
Формат/Информация : Advanced Video Codec
Профиль формата : [email protected]
Параметр CABAC формата : Да
Параметр ReFrames формата : 9 кадров
Идентификатор кодека : V_MPEG4/ISO/AVC
Продолжительность : 1 ч. 38 м.
Битрейт : 6864 Кбит/сек
Ширина : 1280 пикселей
Высота : 692 пикселя
Соотношение сторон : 1,85:1
Режим частоты кадров : Постоянный
Частота кадров : 23,976 (24000/1001) кадра/сек
Цветовое пространство : YUV
Субдискретизация насыщенности : 4:2:0
Битовая глубина : 8 бит
Тип развёртки : Прогрессивная
Бит/(Пиксели*Кадры) : 0.323
Размер потока : 4,74 Гбайт (75%)
Библиотека кодирования : x264 core 148 r2744kMod b97ae06
Настройки программы : cabac=1 / ref=9 / deblock=1:-3:-3 / analyse=0x3:0x133 / me=umh / subme=10 / psy=1 / fade_compensate=0.00 / psy_rd=1.00:0.00 / mixed_ref=1 / me_range=24 / chroma_me=1 / trellis=2 / 8x8dct=1 / cqm=0 / deadzone=21,11 / fast_pskip=0 / chroma_qp_offset=-2 / threads=24 / lookahead_threads=4 / sliced_threads=0 / nr=0 / decimate=0 / interlaced=0 / bluray_compat=0 / constrained_intra=0 / bframes=8 / b_pyramid=2 / b_adapt=2 / b_bias=0 / direct=3 / weightb=1 / open_gop=0 / weightp=2 / keyint=250 / keyint_min=23 / scenecut=40 / intra_refresh=0 / rc_lookahead=60 / rc=crf / mbtree=0 / crf=17.5000 / qcomp=0.65 / qpmin=0 / qpmax=69 / qpstep=4 / vbv_maxrate=62500 / vbv_bufsize=78125 / crf_max=0.0 / nal_hrd=none / filler=0 / ip_ratio=1.30 / pb_ratio=1.20 / aq=3:0.80
Язык : English
Default : Да
Forced : Нет
Цветовой диапазон : Limited
Коэффициенты матрицы : BT.709

Аудио #1
Идентификатор : 2
Формат : DTS
Формат/Информация : Digital Theater Systems
Режим : 16
Параметр Endianness формата : Big
Идентификатор кодека : A_DTS
Продолжительность : 1 ч. 38 м.
Вид битрейта : Постоянный
Битрейт : 768 Кбит/сек
Каналы : 6 каналов
Расположение каналов : Front: L C R, Side: L R, LFE
Частота : 48,0 КГц
Частота кадров : 93,750 кадра/сек (512 spf)
Битовая глубина : 24 бит
Метод сжатия : С потерями
Размер потока : 543 Мбайт (8%)
Заголовок : BD CEE
Язык : Russian
Default : Да
Forced : Нет

Аудио #2
Идентификатор : 3
Формат : DTS
Формат/Информация : Digital Theater Systems
Режим : 16
Параметр Endianness формата : Big
Идентификатор кодека : A_DTS
Продолжительность : 1 ч. 38 м.
Вид битрейта : Постоянный
Битрейт : 1509 Кбит/сек
Каналы : 6 каналов
Расположение каналов : Front: L C R, Side: L R, LFE
Частота : 48,0 КГц
Частота кадров : 93,750 кадра/сек (512 spf)
Битовая глубина : 24 бит
Метод сжатия : С потерями
Размер потока : 1,04 Гбайт (17%)
Язык : English
Default : Нет
Forced : Нет

Текст #1
Идентификатор : 4
Формат : UTF-8
Идентификатор кодека : S_TEXT/UTF8
Идентификатор кодека/Информация : UTF-8 Plain Text
Продолжительность : 1 ч. 38 м.
Битрейт : 0 бит/сек
Count of elements : 26
Размер потока : 396 байт (0%)
Заголовок : Forced
Язык : Russian
Default : Да
Forced : Нет

Текст #2
Идентификатор : 5
Формат : UTF-8
Идентификатор кодека : S_TEXT/UTF8
Идентификатор кодека/Информация : UTF-8 Plain Text
Продолжительность : 1 ч. 38 м.
Битрейт : 55 бит/сек
Count of elements : 1044
Размер потока : 40,4 Кбайт (0%)
Язык : Russian
Default : Нет
Forced : Нет

Текст #3
Идентификатор : 6
Формат : UTF-8
Идентификатор кодека : S_TEXT/UTF8
Идентификатор кодека/Информация : UTF-8 Plain Text
Продолжительность : 1 ч. 37 м.
Битрейт : 39 бит/сек
Count of elements : 1044
Размер потока : 28,1 Кбайт (0%)
Язык : English
Default : Нет
Forced : Нет

Текст #4
Идентификатор : 7
Формат : UTF-8
Идентификатор кодека : S_TEXT/UTF8
Идентификатор кодека/Информация : UTF-8 Plain Text
Продолжительность : 1 ч. 38 м.
Битрейт : 42 бит/сек
Count of elements : 1135
Размер потока : 30,3 Кбайт (0%)
Заголовок : SDH
Язык : English
Default : Нет
Forced : Нет

Меню
00:00:00.000 : en:00:00:00.000
00:05:30.747 : en:00:05:30.747
00:09:12.469 : en:00:09:12.469
00:14:19.525 : en:00:14:19.525
00:21:37.880 : en:00:21:37.880
00:25:24.314 : en:00:25:24.314
00:30:09.850 : en:00:30:09.850
00:35:53.318 : en:00:35:53.318
00:39:04.384 : en:00:39:04.384
00:43:53.464 : en:00:43:53.464
00:48:49.677 : en:00:48:49.677
00:55:11.683 : en:00:55:11.683
00:58:47.607 : en:00:58:47.607
01:05:27.715 : en:01:05:27.715
01:10:46.284 : en:01:10:46.284
01:14:26.420 : en:01:14:26.420
01:18:25.075 : en:01:18:25.075
01:21:48.403 : en:01:21:48.403
01:27:42.841 : en:01:27:42.841
01:31:03.291 : en:01:31:03.291
<div class="clear" style="height: 8px;"></div>

Внимание! AdBlock блокирует показ скриншотов, все вопросы к разработчикам )))
Трекер:  [ 10-Фев-2017 17:00 ]

  

Скачать .torrent

Размер .torrent файла 16 KB


Размер: 6.32 GB
Хэш (hash) релиза: 33c6643da740374c56b6bba17660b85796cd308e
Подписка на обновления:

Торренты, похожие на Уиджи. Проклятие доски дьявола Ouija: Origin of Evil скачать торрент

Форум Название Автор Размер S L Добавлен
Зарубежные фильмы до 2016 ·· Уиджи. Проклятие доски дьявола / Ouija: Origin of Evil (Майк Флэнеган / Mike Flanagan) [2016, США, ужасы, триллер, Blu-ray disc 1080p] Dub (CEE) + Sub Rus, Eng + Original Eng Galfimbul 4082088540738.02 GB 0 0 1487259996

18:46

16-Фев-17

Зарубежные фильмы до 2016 ·· Уиджи. Проклятие доски дьявола / Ouija: Origin of Evil (Майк Флэнеган / Mike Flanagan) [2016, США, ужасы, триллер, BDRip 1080p] Dub (BD CEE) + Sub Rus, Eng + Original Eng Galfimbul 1586868714814.78 GB 0 0 1487259989

18:46

16-Фев-17

Зарубежные фильмы 2016-2019 (Новинки зарубежного кино) ·· Уиджи. Проклятие доски дьявола / Ouija: Origin of Evil (Майк Флэнеган / Mike Flanagan) [2016, Япония, США, ужасы, триллер, BDRip-AVC] Dub + Original + Sub (rus, eng) Galfimbul 22780156322.12 GB 0 0 1486888329

11:32

12-Фев-17

Зарубежные фильмы 2016-2019 (Новинки зарубежного кино) ·· Уиджи. Проклятие доски дьявола / Ouija: Origin of Evil (Майк Флэнеган / Mike Flanagan) [2016, США, Япония, ужасы, триллер, BDRip-AVC] Dub + Original Eng + Sub Eng Galfimbul 15617460311.45 GB 0 0 1484234783

18:26

12-Янв-17

Зарубежные фильмы до 2016 ·· Уиджи. Проклятие доски дьявола / Ouija: Origin of Evil (Майк Флэнеган / Mike Flanagan) [2016, США, ужасы, триллер, BDRip 720p] Dub (iTunes) + Sub Eng + Original Eng Galfimbul 54860484125.11 GB 0 0 1483694200

12:16

6-Янв-17

Зарубежные фильмы 2016-2019 (Новинки зарубежного кино) ·· Уиджи. Проклятие доски дьявола / Ouija: Origin of Evil (Майк Флэнеган / Mike Flanagan) [2016, США, Япония, ужасы, триллер, Blu-Ray EUR 1080p] Лицензия Galfimbul 4082088540738.02 GB 0 0 1486716208

11:43

10-Фев-17

Зарубежные фильмы 2016-2019 (Новинки зарубежного кино) ·· Уиджи. Проклятие доски дьявола / Ouija: Origin of Evil (Майк Флэнеган / Mike Flanagan) [2016, США, ужасы, триллер, HDRip] Dub (iTunes) Galfimbul 780374016744 MB 0 0 1484234820

18:27

12-Янв-17

Зарубежные фильмы 2016-2019 (Новинки зарубежного кино) ·· Уиджи. Проклятие доски дьявола / Ouija: Origin of Evil (Майк Флэнеган / Mike Flanagan) [2016, США, ужасы, триллер, BDRip 1080p] iTunes Galfimbul 85015398967.92 GB 0 0 1483714512

17:55

6-Янв-17

Зарубежные фильмы 2016-2019 (Новинки зарубежного кино) ·· Уиджи. Проклятие доски дьявола / Ouija: Origin of Evil (Майк Флэнеган / Mike Flanagan) [2016, США, ужасы, триллер, WEB-DLRip] Dub (iTunes) Galfimbul 15691325441.46 GB 0 0 1483655125

01:25

6-Янв-17

Зарубежные фильмы до 2016 ·· Уиджи. Проклятие доски дьявола / Ouija: Origin of Evil (Майк Флэнеган / Mike Flanagan) [2016, США, ужасы, триллер, WEB-DL 1080p] Dub (iTunes) Galfimbul 39654165483.69 GB 0 0 1483618853

15:20

5-Янв-17

Зарубежные фильмы 2016-2019 (Новинки зарубежного кино) ·· Уиджи. Проклятие доски дьявола / Ouija: Origin of Evil (Майк Флэнеган) [2016 г., ужасы, триллер, WEB-DLRip] iTunes Galfimbul 781586920745 MB 0 0 1483578684

04:11

5-Янв-17

Зарубежные фильмы 2016-2019 (Новинки зарубежного кино) ·· Уиджи. Проклятие доски дьявола / Ouija: Origin of Evil (Майк Флэнеган) [2016 г., ужасы, триллер, WEB-DLRip] iTunes Galfimbul 15679367441.46 GB 0 0 1483575592

03:19

5-Янв-17

Зарубежные фильмы 2016-2019 (Новинки зарубежного кино) ·· Уиджи. Проклятие доски дьявола / Ouija: Origin of Evil (Майк Флэнеган) [2016 г., ужасы, триллер, WEB-DL 1080p] iTunes Galfimbul 39654165483.69 GB 0 0 1483562589

23:43

4-Янв-17

Зарубежные фильмы 2016-2019 (Новинки зарубежного кино) ·· Уиджи. Проклятие доски дьявола / Ouija: Origin of Evil (Майк Флэнеган) [2016 г., ужасы, триллер, WEBRip] Galfimbul 14676275201.37 GB 0 0 1478500880

09:41

7-Ноя-16

Еще никто не оставлял запись к записи скачать торрент Уиджи. Проклятие доски дьявола Ouija: Origin of Evil . Будь первым!

!Обратная связь