Скачать через торрент Светская жизнь Café Society Фильм бесплатно в хорошем качестве torrent

Скачивайте на UnionPeer.org фильмы через торрент без регистрации. Новинки кино в хорошем качестве через торрент. На UnionPeer.org можно скачать через торрент фильмы 2014 и 2015 годов. Самые новые фильмы.

Скачать торрент Светская жизнь Café Society бесплатно через .torrent фильм мультфильм сериал

Статистика раздачи
Размер:  11.98 GB   |    Зарегистрирован:  7 лет 3 месяца   |    .torrent скачан:  43 раза   |   
Раздают:  1  
 

Скачать Светская жизнь / Café Society (Вуди Аллен / Woody Allen) [2016, США, драма, мелодрама, комедия, BDRip 1080p] Dub (BD RUS) + Sub Rus, Eng + Original Eng через torrent

 
 
Автор Сообщение

Galfimbul

avatar Galfimbul


Светская жизнь / Café Society

Страна: США
Студия: FilmNation Entertainment, Gravier Productions, Perdido Productions
Жанр: драма, мелодрама, комедия
Год выпуска: 2016
Продолжительность: 01:36:05

Перевод: Профессиональный (дублированный) BD RUS
Cубтитры: Русские, Английские
Оригинальная аудиодорожка: английский

Режиссер: Вуди Аллен / Woody Allen

В ролях: Дженни Берлин, Стив Карелл, Джесси Айзенберг, Кристен Стюарт, Блейк Лайвли, Паркер Поузи, Кори Столл, Кен Стотт, Анна Кэмп, Пол Шнайдер

Описание: 1930-е годы. Молодой человек приезжает из Нью-Йорка в Голливуд в надежде найти работу в киноиндустрии. В Лос-Анджелесе он влюбляется и обнаруживает себя в самом центре водоворота бурной светской жизни и событий, определивших дух того времени.

Доп. Информация:
Рип от VietHD

<div class="post-box">Скачать сэмпл</div>

Тип релиза: BDRip 1080p
Контейнер: MKV

Видео: MPEG-4 AVC, 14,5 Мбит/с, 1920x960, 23,976 fps
Аудио 1: Russian: 48 kHz, DTS, 3/2 (L,C,R,l,r) + LFE ch, ~1510.00 kbps avg |Дубляж, Blu-ray RUS|
Аудио 2: Ukrainian: 48 kHz, AC3, 3/2 (L,C,R,l,r) + LFE ch, ~384.00 kbps avg |Дубляж, iTunes|
Аудио 3: English: 48 kHz, DTS, 3/2 (L,C,R,l,r) + LFE ch, ~1510.00 kbps avg
Формат субтитров: softsub (SRT)
Общее
Уникальный идентификатор : 225712402943668107422032733374119039725 (0xA9CEA0A8178F3127AFADCFD1C06252ED)
Полное имя : Cafe.Society.2016.BDRip.1080p.mkv
Формат : Matroska
Версия формата : Version 4 / Version 2
Размер файла : 12,0 Гбайт
Продолжительность : 1 ч. 36 м.
Общий поток : 17,9 Мбит/сек
Дата кодирования : UTC 2017-02-03 06:20:54
Программа кодирования : mkvmerge v9.8.0 ('Kuglblids') 64bit
Библиотека кодирования : libebml v1.3.4 + libmatroska v1.4.5

Видео
Идентификатор : 1
Формат : AVC
Формат/Информация : Advanced Video Codec
Профиль формата : [email protected]
Параметр CABAC формата : Да
Параметр ReFrames формата : 4 кадра
Идентификатор кодека : V_MPEG4/ISO/AVC
Продолжительность : 1 ч. 36 м.
Битрейт : 14,5 Мбит/сек
Ширина : 1920 пикселей
Высота : 960 пикселей
Соотношение сторон : 2,000
Режим частоты кадров : Постоянный
Частота кадров : 23,976 (24000/1001) кадра/сек
Цветовое пространство : YUV
Субдискретизация насыщенности : 4:2:0
Битовая глубина : 8 бит
Тип развёртки : Прогрессивная
Бит/(Пиксели*Кадры) : 0.327
Размер потока : 9,70 Гбайт (81%)
Библиотека кодирования : x264 core 148 r2705.16 d50a22e VietHD_Custom_64
Настройки программы : cabac=1 / ref=4 / deblock=1:-3:-3 / analyse=0x3:0x133 / me=umh / subme=10 / psy=1 / fade_compensate=0.00 / psy_rd=1.07:0.00 / mixed_ref=1 / me_range=24 / chroma_me=1 / trellis=2 / 8x8dct=1 / cqm=0 / deadzone=21,11 / fast_pskip=0 / chroma_qp_offset=-2 / threads=12 / lookahead_threads=2 / sliced_threads=0 / nr=0 / decimate=0 / interlaced=0 / bluray_compat=0 / constrained_intra=0 / fgo=0 / bframes=9 / b_pyramid=2 / b_adapt=2 / b_bias=0 / direct=3 / weightb=1 / open_gop=0 / weightp=2 / keyint=250 / keyint_min=23 / scenecut=40 / intra_refresh=0 / rc_lookahead=60 / rc=crf / mbtree=0 / crf=16.6000 / qcomp=0.65 / qpmin=0:0:0 / qpmax=69:69:69 / qpstep=4 / vbv_maxrate=62500 / vbv_bufsize=78125 / crf_max=0.0 / nal_hrd=none / filler=0 / ip_ratio=1.30 / pb_ratio=1.20 / aq=3:0.78 / aq-sensitivity=10.00 / aq-factor=1.00:1.00:1.00 / aq2=0 / aq3=0
Язык : English
Default : Да
Forced : Нет
Цветовой диапазон : Limited
Коэффициенты матрицы : BT.709

Аудио #1
Идентификатор : 2
Формат : DTS
Формат/Информация : Digital Theater Systems
Режим : 16
Параметр Endianness формата : Big
Идентификатор кодека : A_DTS
Продолжительность : 1 ч. 35 м.
Вид битрейта : Постоянный
Битрейт : 1510 Кбит/сек
Каналы : 6 каналов
Расположение каналов : Front: L C R, Side: L R, LFE
Частота : 48,0 КГц
Частота кадров : 93,750 кадра/сек (512 spf)
Битовая глубина : 24 бит
Метод сжатия : С потерями
Размер потока : 1,01 Гбайт (8%)
Заголовок : Blu-ray RUS
Язык : Russian
Default : Да
Forced : Нет

Аудио #2
Идентификатор : 3
Формат : AC-3
Формат/Информация : Audio Coding 3
Расширение режима : CM (complete main)
Параметр Endianness формата : Big
Идентификатор кодека : A_AC3
Продолжительность : 1 ч. 36 м.
Вид битрейта : Постоянный
Битрейт : 384 Кбит/сек
Каналы : 6 каналов
Расположение каналов : Front: L C R, Side: L R, LFE
Частота : 48,0 КГц
Частота кадров : 31,250 кадров/сек (1536 spf)
Метод сжатия : С потерями
Размер потока : 264 Мбайт (2%)
Заголовок : iTunes
Язык : Ukrainian
Default : Нет
Forced : Нет

Аудио #3
Идентификатор : 4
Формат : DTS
Формат/Информация : Digital Theater Systems
Режим : 16
Параметр Endianness формата : Big
Идентификатор кодека : A_DTS
Продолжительность : 1 ч. 36 м.
Вид битрейта : Постоянный
Битрейт : 1509 Кбит/сек
Каналы : 6 каналов
Расположение каналов : Front: L C R, Side: L R, LFE
Частота : 48,0 КГц
Частота кадров : 93,750 кадра/сек (512 spf)
Битовая глубина : 24 бит
Метод сжатия : С потерями
Размер потока : 1,01 Гбайт (8%)
Язык : English
Default : Нет
Forced : Нет

Текст #1
Идентификатор : 5
Формат : UTF-8
Идентификатор кодека : S_TEXT/UTF8
Идентификатор кодека/Информация : UTF-8 Plain Text
Продолжительность : 1 ч. 30 м.
Битрейт : 188 бит/сек
Count of elements : 1807
Размер потока : 125 Кбайт (0%)
Язык : Russian
Default : Нет
Forced : Нет

Текст #2
Идентификатор : 6
Формат : UTF-8
Идентификатор кодека : S_TEXT/UTF8
Идентификатор кодека/Информация : UTF-8 Plain Text
Продолжительность : 1 ч. 31 м.
Битрейт : 101 бит/сек
Count of elements : 1733
Размер потока : 67,4 Кбайт (0%)
Язык : English
Default : Нет
Forced : Нет

Меню
00:00:00.000 : en:00:00:00.000
00:08:35.849 : en:00:08:35.849
00:16:40.166 : en:00:16:40.166
00:26:28.629 : en:00:26:28.629
00:32:30.991 : en:00:32:30.991
00:43:12.507 : en:00:43:12.507
00:54:03.866 : en:00:54:03.866
01:02:38.755 : en:01:02:38.755
01:10:05.660 : en:01:10:05.660
01:14:41.102 : en:01:14:41.102
01:20:46.175 : en:01:20:46.175
01:31:57.095 : en:01:31:57.095
<div class="clear" style="height: 8px;"></div>

Внимание! AdBlock блокирует показ скриншотов, все вопросы к разработчикам )))

Трекер:  [ 11-Фев-2017 16:30 ]

  

Скачать .torrent

Размер .torrent файла 30 KB


Размер: 11.98 GB
Хэш (hash) релиза: 4a41368671879d45433f553d37a9bb88eb0ae8e6
Подписка на обновления:

Еще никто не оставлял запись к записи скачать торрент Светская жизнь Café Society . Будь первым!

!Обратная связь