[UNCENSORED] Sky Angel Blue Vol. 22 Maria Ozawa 22 Maria Ozawa UnionPeer.org HD

2015, 2014 UnionPeer.org

.

22.3 GB   |    :  12    |    .torrent :  471    |   
1  
   
 

Galfimbul

avatar Galfimbul


Sky Angel Blue Vol 22 Maria Ozawa
22 Maria Ozawa


: 2009 . : Japan : Asian, Oral, Cunnilingus, Pretty Face, Doggy Style
: 120 : (Japan)
: Sky High Entertainment
: Maria Ozawa , Karen
: | IMDB | Sky Angel Blue |
The most beautiful and the sluttiest of them all and the part Japanese goddess, Maria Ozawa, is back at it again!
Enjoy more great sex scenes performed by Maria! As always, a cream pie finish can be seen! Special Bonus with Karen!
: : M2TS
: MPEG-2 : AC-3
: MPEG-2 | 16:9 | 1920x1080i | 29.970 fps | 22.6 Mbps
: AC3 | 48 kHz | 192 kbps

:

General
ID : 0
Complete name : D:\PL1\Sky Angel Blue Vol 22 Maria Ozawa, Rinka XXX 2009 1080i Blu-ray MPEG-2 DD2.0\BDMV\STREAM\00007.m2ts
Format : BDAV
Format/Info : Blu-ray Video
File size : 20.3 GiB
Duration : 2h 2mn
Overall bit rate : 23.7 Mbps
Maximum Overall bit rate : 48.0 Mbps

Video
ID : 4113 (0x1011)
Menu ID : 1 (0x1)
Format : MPEG Video
Format version : Version 2
Format profile : Main@High
Format settings, BVOP : Yes
Format settings, Matrix : Default
Format_Settings_GOP : M=3, N=15
Duration : 2h 2mn
Bit rate mode : Variable
Bit rate : 22.6 Mbps
Nominal bit rate : 26.5 Mbps
Width : 1 920 pixels
Height : 1 080 pixels
Display aspect ratio : 16:9
Frame rate : 29.970 fps
Standard : Component
Resolution : 8 bits
Colorimetry : 4:2:0
Scan type : Interlaced
Scan order : Top Field First
Bits/(Pixel*Frame) : 0.363
Stream size : 19.4 GiB (95%)

Audio
ID : 4352 (0x1100)
Menu ID : 1 (0x1)
Format : AC-3
Format/Info : Audio Coding 3
Duration : 2h 2mn
Bit rate mode : Constant
Bit rate : 192 Kbps
Channel(s) : 2 channels
Channel positions : L R
Sampling rate : 48.0 KHz
Stream size : 169 MiB (1%)

Text #1
ID : 4608 (0x1200)
Menu ID : 1 (0x1)
Format : PGS

Text #2
ID : 4609 (0x1201)
Menu ID : 1 (0x1)
Format : PGS

Text #3
ID : 4610 (0x1202)
Menu ID : 1 (0x1)
Format : PGS

Text #4
ID : 4611 (0x1203)
Menu ID : 1 (0x1)
Format : PGS

Text #5
ID : 4612 (0x1204)
Menu ID : 1 (0x1)
Format : PGS

Text #6
ID : 4613 (0x1205)
Menu ID : 1 (0x1)
Format : PGS


! AdBlock , )))

 ·  , , FAQ-
:  [ 26--2011 12:44 ]

  

.torrent

.torrent 114 KB


: 22.3 GB
(hash) : 9f2d2905ef20aa4dc7fe7b484bcfe915d3a22e99
··
...

[UNCENSORED] Sky Angel Blue Vol. 22 Maria Ozawa 22 Maria Ozawa . !

!