Скачать через торрент Трансформация Rupture Фильм бесплатно в хорошем качестве torrent

Скачивайте на UnionPeer.org фильмы через торрент без регистрации. Новинки кино в хорошем качестве через торрент. На UnionPeer.org можно скачать через торрент фильмы 2014 и 2015 годов. Самые новые фильмы.

Скачать торрент Трансформация Rupture бесплатно через .torrent фильм мультфильм сериал

Статистика раздачи
Размер:  6.26 GB   |    Зарегистрирован:  7 лет   |    .torrent скачан:  151 раз   |   
Раздают:  1  
 

Скачать Трансформация / Rupture (Стивен Шейнберг) [2016, фантастика, триллер, BDRip 720p] через torrent

 
 
Автор Сообщение

Galfimbul

avatar Galfimbul


Трансформация /Rupture

Год выхода: 2016
Жанр: Фантастика, триллер
Режиссер: Стивен Шейнберг
В ролях: Нуми Рапас, Петер Стормаре, Керри Бише, Майкл Чиклис, Эри Миллен, Лесли Мэнвилл, Джин Юн, Перси Хайнс Уайт, Морган Келли, Серджо Ди Зио

О фильме:
Рене живет с 12-летним сыном в тихом районе на окраине города. Она страшно боится пауков. Однажды её похищают незнакомцы, и женщина приходит в себя в лаборатории, где узнает, что она — уникальный обладатель генетической аномалии, которая может помочь ей трансформироваться в иную сущность, в монстра.



Страна: США, Канада
Студия: Ambi Pictures, BondIt, Tango Pictures
Продолжительность: 01:41:15
Перевод: Профессиональный (полное дублирование)[Официальный звук!]

Файл
Качество: BDRip 720p
Формат: MKV
Кодек: MPEG-4 AVC
Видео: 1280x536 (2.40:1), 23,976 fps, MPEG-4 AVC ~ 8024 Kbps avg, 0.488 bit/pixel
Аудио: АС3, 48 kHz, 2 ch, ~192.00 kbps avg | русский | Профессиональный (полное дублирование)[Официальный звук!]
Аудио: АС3, 48 kHz, 6 ch, ~640.00 kbps avg | английский | Оригинал
Субтитры: Датские, финские, норвежские, испанские, шведские
Семпл
General
Unique ID : 189650021663922956265899947980409588384 (0x8EAD43FC3D62C282946698CD1EA8CAA0)
Complete name : Rupture.2016.720p.BluRay.Rus.Eng.mkv
Format : Matroska
Format version : Version 4 / Version 2
File size : 6.26 GiB
Duration : 1 h 41 min
Overall bit rate : 8 858 kb/s
Movie name : Rupture (2016)
Encoded date : UTC 2017-02-23 06:42:23
Writing application : mkvmerge v9.7.1 ('Pandemonium') 64bit
Writing library : libebml v1.3.4 + libmatroska v1.4.5

Video
ID : 1
Format : AVC
Format/Info : Advanced Video Codec
Format profile : [email protected]
Format settings, CABAC : Yes
Format settings, ReFrames : 12 frames
Codec ID : V_MPEG4/ISO/AVC
Duration : 1 h 41 min
Bit rate : 8 024 kb/s
Width : 1 280 pixels
Height : 536 pixels
Display aspect ratio : 2.40:1
Frame rate mode : Constant
Frame rate : 23.976 (24000/1001) FPS
Color space : YUV
Chroma subsampling : 4:2:0
Bit depth : 8 bits
Scan type : Progressive
Bits/(Pixel*Frame) : 0.488
Stream size : 5.67 GiB (91%)
Writing library : x264 core 148 r2744 b97ae06
Encoding settings : cabac=1 / ref=12 / deblock=1:-3:-3 / analyse=0x3:0x113 / me=umh / subme=10 / psy=1 / psy_rd=1.03:0.00 / mixed_ref=1 / me_range=32 / chroma_me=1 / trellis=2 / 8x8dct=1 / cqm=1 / deadzone=21,11 / fast_pskip=0 / chroma_qp_offset=-1 / threads=12 / lookahead_threads=2 / sliced_threads=0 / nr=0 / decimate=1 / interlaced=0 / bluray_compat=0 / constrained_intra=0 / bframes=8 / b_pyramid=2 / b_adapt=2 / b_bias=0 / direct=3 / weightb=1 / open_gop=0 / weightp=2 / keyint=230 / keyint_min=23 / scenecut=40 / intra_refresh=0 / rc_lookahead=40 / rc=crf / mbtree=0 / crf=13.5 / qcomp=0.64 / qpmin=10 / qpmax=69 / qpstep=4 / vbv_maxrate=62500 / vbv_bufsize=78125 / crf_max=0.0 / nal_hrd=none / filler=0 / ip_ratio=1.30 / pb_ratio=1.20 / aq=1:0.76
Language : English
Default : Yes
Forced : No

Audio #1
ID : 2
Format : AC-3
Format/Info : Audio Coding 3
Mode extension : CM (complete main)
Format settings, Endianness : Big
Codec ID : A_AC3
Duration : 1 h 41 min
Bit rate mode : Constant
Bit rate : 192 kb/s
Channel(s) : 2 channels
Channel positions : Front: L R
Sampling rate : 48.0 kHz
Frame rate : 31.250 FPS (1536 spf)
Bit depth : 16 bits
Compression mode : Lossy
Stream size : 139 MiB (2%)
Language : Russian
Default : Yes
Forced : No

Audio #2
ID : 3
Format : AC-3
Format/Info : Audio Coding 3
Mode extension : CM (complete main)
Format settings, Endianness : Big
Codec ID : A_AC3
Duration : 1 h 41 min
Bit rate mode : Constant
Bit rate : 640 kb/s
Channel(s) : 6 channels
Channel positions : Front: L C R, Side: L R, LFE
Sampling rate : 48.0 kHz
Frame rate : 31.250 FPS (1536 spf)
Bit depth : 16 bits
Compression mode : Lossy
Stream size : 464 MiB (7%)
Language : English
Default : No
Forced : No

Text #1
ID : 4
Format : UTF-8
Codec ID : S_TEXT/UTF8
Codec ID/Info : UTF-8 Plain Text
Duration : 1 h 32 min
Bit rate : 28 b/s
Count of elements : 506
Stream size : 19.6 KiB (0%)
Language : Danish
Default : No
Forced : No

Text #2
ID : 5
Format : UTF-8
Codec ID : S_TEXT/UTF8
Codec ID/Info : UTF-8 Plain Text
Duration : 1 h 32 min
Bit rate : 29 b/s
Count of elements : 507
Stream size : 20.2 KiB (0%)
Language : Finnish
Default : No
Forced : No

Text #3
ID : 6
Format : UTF-8
Codec ID : S_TEXT/UTF8
Codec ID/Info : UTF-8 Plain Text
Duration : 1 h 32 min
Bit rate : 29 b/s
Count of elements : 507
Stream size : 19.7 KiB (0%)
Language : Norwegian
Default : No
Forced : No

Text #4
ID : 7
Format : UTF-8
Codec ID : S_TEXT/UTF8
Codec ID/Info : UTF-8 Plain Text
Duration : 1 h 32 min
Bit rate : 29 b/s
Count of elements : 659
Stream size : 19.8 KiB (0%)
Language : Spanish
Default : No
Forced : No

Text #5
ID : 8
Format : UTF-8
Codec ID : S_TEXT/UTF8
Codec ID/Info : UTF-8 Plain Text
Duration : 1 h 32 min
Bit rate : 29 b/s
Count of elements : 507
Stream size : 20.3 KiB (0%)
Language : Swedish
Default : No
Forced : No

Menu
00:00:00.000 : en:Chapter 1
00:15:38.563 : en:Chapter 2
00:39:01.506 : en:Chapter 3
01:00:30.585 : en:Chapter 4
01:18:13.022 : en:Chapter 5
01:34:14.315 : en:Chapter 6


Внимание! AdBlock блокирует показ скриншотов, все вопросы к разработчикам )))
Трекер:  [ 23-Фев-2017 10:00 ]

  

Скачать .torrent

Размер .torrent файла 16 KB


Размер: 6.26 GB
Хэш (hash) релиза: f7fa62caf80fee3b674798a792cee0ab4fa96a50
Подписка на обновления:

Торренты, похожие на Трансформация Rupture скачать торрент

Форум Название Автор Размер S L Добавлен
Зарубежные фильмы 2016-2019 (Новинки зарубежного кино) ·· Трансформация / Rupture (Стивен Шейнберг / Steven Shainberg) [2016, США, Канада, ужасы, фантастика, триллер. драма, BDRip] Dub (iTunes) Galfimbul 15482941441.44 GB 0 0 1492677431

11:37

20-Апр-17

Зарубежные фильмы 2016-2019 (Новинки зарубежного кино) ·· Трансформация / Rupture (Стивен Шейнберг) [2016, фантастика, триллер, BDRemux 1080p] iTunes Galfimbul 1936962928818.04 GB 0 0 1491290183

10:16

4-Апр-17

Зарубежные фильмы 2016-2019 (Новинки зарубежного кино) ·· Трансформация / Rupture (Стивен Шейнберг) [2016, фантастика, триллер, BDRip 1080p] iTunes Galfimbul 1510753802114.07 GB 0 0 1491290176

10:16

4-Апр-17

Зарубежные фильмы 2016-2019 (Новинки зарубежного кино) ·· Трансформация / Rupture (Стивен Шейнберг) [2016, фантастика, триллер, BDRip 720p] iTunes Galfimbul 78244725317.29 GB 0 0 1491290169

10:16

4-Апр-17

Зарубежные фильмы 2016-2019 (Новинки зарубежного кино) ·· Трансформация / Rupture (Стивен Шейнберг / Steven Shainberg) [2016,США, Канада, Фантастика, триллер, HDRip] DUB (Line) Galfimbul 15668244481.46 GB 0 0 1488016424

12:53

25-Фев-17

Зарубежные фильмы 2016-2019 (Новинки зарубежного кино) ·· Трансформация / Rupture (Стивен Шейнберг) [2016, фантастика, триллер, НDRip] Galfimbul 15669760001.46 GB 0 0 1487836397

10:53

23-Фев-17

Зарубежные фильмы 2016-2019 (Новинки зарубежного кино) ·· Трансформация / Rupture (Стивен Шейнберг) [2016, фантастика, триллер, BDRip 720p] Galfimbul 49121853374.57 GB 0 0 1487836393

10:53

23-Фев-17

Зарубежные фильмы 2016-2019 (Новинки зарубежного кино) ·· Трансформация / Rupture (Стивен Шейнберг) [2016, фантастика, триллер, HDRip] Galfimbul 22186659842.07 GB 0 0 1483897404

20:43

8-Янв-17

Зарубежные фильмы 2016-2019 (Новинки зарубежного кино) ·· Трансформация / Rupture (Стивен Шейнберг) [2016, фантастика, триллер, WEB-DLRip] Galfimbul 14675865601.37 GB 0 0 1481170206

07:10

8-Дек-16

Зарубежные фильмы 2016-2019 (Новинки зарубежного кино) ·· Трансформация / Rupture (Стивен Шейнберг) [2016, Фантастика, триллер, WEB-DLRip] Galfimbul 15525683201.45 GB 0 0 1481148842

01:14

8-Дек-16

Еще никто не оставлял запись к записи скачать торрент Трансформация Rupture . Будь первым!

!Обратная связь